<svg xmlns="http://www.w3.org/2000/svg">
<defs>
<font
   horiz-adv-x="1000"
   id="font876"
   horiz-origin-x="0"
   horiz-origin-y="0"
   vert-origin-x="45"
   vert-origin-y="90"
   vert-adv-y="90">
<!-- Poppins is a trademark of Indian Type Foundry. -->
<!-- Copyright: Copyright 2019 Adobe System Incorporated. All rights reserved. -->
<font-face
   font-family="Poppins-Medium"
   units-per-em="1000"
   underline-position="-125"
   underline-thickness="50"
   id="font-face4" />
<missing-glyph
   horiz-adv-x="753"
   d="M237,640l0,-579l279,0l0,579M171,0l0,701l410,0l0,-701z"
   id="missing-glyph6" />
<glyph
   unicode=" "
   horiz-adv-x="300"
   id="glyph8" />
<glyph
   unicode=" "
   horiz-adv-x="300"
   id="glyph10" />
<glyph
   unicode="!"
   horiz-adv-x="414"
   d="M285,69C285,50 278,33 265,20C252,7 236,0 217,0C198,0 181,7 168,20C155,33 148,50 148,69C148,88 155,104 168,117C181,130 197,137 216,137C235,137 252,130 265,117C278,104 285,88 285,69M166,220l-13,529l121,0l-14,-529z"
   id="glyph12" />
<glyph
   unicode="&quot;"
   horiz-adv-x="323"
   d="M198,592l-13,205l103,0l-12,-205M47,592l-13,205l103,0l-12,-205z"
   id="glyph14" />
<glyph
   unicode="#"
   horiz-adv-x="872"
   d="M812,458l-154,0l-37,-173l132,0l0,-100l-153,0l-40,-185l-109,0l40,185l-196,0l-40,-185l-109,0l40,185l-155,0l0,100l176,0l37,173l-154,0l0,100l175,0l39,182l109,0l-39,-182l196,0l39,182l109,0l-39,-182l133,0M512,285l37,173l-196,0l-37,-173z"
   id="glyph16" />
<glyph
   unicode="$"
   horiz-adv-x="650"
   d="M544,198C544,147 525,101 487,62C449,23 397,0 331,-6l0,-81l-57,0l0,81C210,-1 158,18 119,52C80,85 60,130 60,185l122,0C187,128 217,96 274,87l0,220C213,321 171,335 146,350C116,367 95,386 84,406C68,434 60,466 60,502C60,559 80,605 119,641C158,677 210,698 274,703l0,81l57,0l0,-81C391,698 439,680 476,649C512,617 532,573 537,517l-122,0C413,538 405,557 390,574C375,591 355,602 331,607l0,-216C394,376 437,363 458,350C489,331 509,314 517,299C535,268 544,234 544,198M274,406l0,204C244,606 220,596 203,579C185,562 176,539 176,510C176,481 185,458 202,443C219,428 243,415 274,406M331,292l0,-205C362,92 386,104 403,123C420,142 429,165 429,192C429,219 421,240 404,255C387,270 362,283 331,292z"
   id="glyph18" />
<glyph
   unicode="%"
   horiz-adv-x="722"
   d="M592,144C592,200 571,228 529,228C487,228 466,200 466,144C466,88 487,60 529,60C571,60 592,88 592,144M421,32C392,59 378,97 378,144C378,191 392,229 421,256C449,283 485,297 530,297C574,297 610,283 639,256C667,229 681,191 681,144C681,97 667,59 639,32C610,4 574,-10 530,-10C485,-10 449,4 421,32M105,0l399,696l112,0l-399,-696M256,553C256,609 235,637 193,637C151,637 130,609 130,553C130,496 151,468 193,468C235,468 256,496 256,553M84,441C55,468 41,506 41,553C41,600 55,638 84,665C112,692 148,706 193,706C238,706 274,692 303,665C331,638 345,600 345,553C345,506 331,468 303,441C274,413 238,399 193,399C148,399 112,413 84,441z"
   id="glyph20" />
<glyph
   unicode="&amp;"
   horiz-adv-x="677"
   d="M246,-8C187,-8 138,12 97,52C56,92 36,142 36,203C36,263 55,313 94,352C133,391 179,410 233,410l-17,8C171,479 149,532 149,576C149,619 166,658 200,691C233,724 279,740 336,740C393,740 439,724 473,693C507,661 524,624 524,581C524,562 521,545 515,530l-112,0C408,542 411,557 411,575C411,593 404,609 390,623C376,637 358,644 337,644C315,644 297,637 284,623C270,609 263,590 263,567C263,543 276,515 301,482l365,-482l-136,0l-91,123C425,85 400,54 365,29C330,4 290,-8 246,-8M169,120C190,97 216,86 247,86C278,86 304,98 326,121C347,144 358,171 358,204C358,237 347,264 326,287C304,310 278,321 247,321C216,321 190,310 169,287C148,264 137,237 137,204C137,171 148,143 169,120z"
   id="glyph22" />
<glyph
   unicode="'"
   horiz-adv-x="172"
   d="M47,592l-13,205l103,0l-12,-205z"
   id="glyph24" />
<glyph
   unicode="("
   horiz-adv-x="538"
   d="M393,989l118,0l0,-11C420,905 351,819 306,720C261,620 238,514 238,403C238,291 261,185 306,86C351,-14 420,-101 511,-174l0,-11l-118,0C313,-126 249,-44 200,61C151,165 127,279 127,403C127,526 151,640 200,745C249,849 313,930 393,989z"
   id="glyph26" />
<glyph
   unicode=")"
   horiz-adv-x="539"
   d="M145,-185l-118,0l0,11C119,-101 188,-14 233,86C278,185 301,291 301,403C301,514 278,620 233,720C188,819 119,905 27,978l0,11l118,0C226,930 290,849 339,745C388,640 412,526 412,403C412,279 388,165 339,61C290,-44 226,-126 145,-185z"
   id="glyph28" />
<glyph
   unicode="*"
   horiz-adv-x="504"
   d="M299,736l-22,-146l115,89l45,-80l-137,-51l137,-51l-46,-82l-114,90l21,-145l-92,0l19,145l-114,-92l-48,85l136,51l-136,49l46,82l117,-90l-20,146z"
   id="glyph30" />
<glyph
   unicode="+"
   horiz-adv-x="714"
   d="M612,412l0,-102l-201,0l0,-204l-108,0l0,204l-201,0l0,102l201,0l0,204l108,0l0,-204z"
   id="glyph32" />
<glyph
   unicode=","
   horiz-adv-x="202"
   d="M36,78l108,0C170,-21 165,-88 130,-124C111,-145 82,-155 45,-155l0,50C62,-105 74,-101 82,-93C89,-85 93,-72 93,-53l0,21l-57,0z"
   id="glyph34" />
<glyph
   unicode="-"
   horiz-adv-x="585"
   d="M87,314l0,96l411,0l0,-96z"
   id="glyph36" />
<glyph
   unicode="."
   horiz-adv-x="235"
   d="M166,20C153,7 136,0 117,0C98,0 82,7 69,20C56,33 49,50 49,69C49,88 56,104 69,117C82,130 98,137 117,137C136,137 153,130 166,117C179,104 186,87 186,68C186,49 179,33 166,20z"
   id="glyph38" />
<glyph
   unicode="/"
   horiz-adv-x="514"
   d="M61,-175l271,1119l113,0l-272,-1119z"
   id="glyph40" />
<glyph
   unicode="0"
   horiz-adv-x="641"
   d="M194,702C229,720 271,729 320,729C369,729 411,720 446,702C481,683 508,657 527,623C546,589 559,551 568,510C576,468 580,420 580,366C580,312 576,264 568,223C559,181 546,143 527,109C508,74 481,48 446,30C411,11 369,2 320,2C271,2 229,11 194,30C159,48 133,74 114,109C95,143 81,181 73,223C64,264 60,312 60,366C60,420 64,468 73,510C81,551 95,589 114,623C133,657 159,683 194,702M320,625C288,625 262,618 241,605C220,591 205,571 196,544C180,498 172,439 172,366C172,293 180,233 196,187C215,133 256,106 320,106C384,106 425,133 444,187C460,233 468,293 468,366C468,439 460,498 444,544C425,598 384,625 320,625z"
   id="glyph42" />
<glyph
   unicode="1"
   horiz-adv-x="350"
   d="M138,0l0,606l-93,0l0,104l208,0l0,-710z"
   id="glyph44" />
<glyph
   unicode="2"
   horiz-adv-x="577"
   d="M51,10l0,83C68,108 92,129 124,156C156,183 181,205 198,220C215,235 236,254 261,278C286,301 306,322 320,339C334,356 348,375 363,396C390,435 404,473 404,512C404,595 365,636 286,636C247,636 216,624 195,599C173,574 161,540 160,498l-110,0C52,574 75,632 119,673C162,713 219,733 289,733C359,733 415,713 456,674C497,635 517,583 517,518C517,469 504,423 478,379C464,356 451,336 438,319C425,301 408,281 385,258C362,235 344,218 331,205C318,192 298,175 273,152C247,129 229,114 220,105l317,0l0,-95z"
   id="glyph46" />
<glyph
   unicode="3"
   horiz-adv-x="594"
   d="M521,556C521,515 510,479 488,450C466,421 440,401 409,391l0,-4C448,375 479,353 501,322C523,290 534,247 534,192C534,137 514,91 473,53C432,15 375,-4 302,-4C229,-4 169,15 123,52C76,89 51,142 48,211l110,0C161,176 174,147 199,125C224,102 257,91 298,91C339,91 371,102 393,125C415,147 426,176 426,211C426,258 411,291 382,311C352,330 306,340 245,340l-26,0l0,94l27,0C357,435 412,472 412,543C412,575 402,601 381,620C360,639 331,648 294,648C256,648 227,639 206,620C185,601 173,577 169,549l-111,0C62,611 86,659 130,694C173,729 230,746 299,746C368,746 422,728 462,693C501,657 521,611 521,556z"
   id="glyph48" />
<glyph
   unicode="4"
   horiz-adv-x="647"
   d="M413,251l0,353l-236,-353M408,0l0,152l-362,0l0,86l336,482l138,0l0,-469l93,0l0,-99l-93,0l0,-152z"
   id="glyph50" />
<glyph
   unicode="5"
   horiz-adv-x="639"
   d="M90,731l440,0l0,-100l-335,0l0,-199C209,451 230,466 258,479C285,492 318,498 355,498C392,498 426,491 458,476C489,461 513,442 530,417C563,369 580,315 580,255C580,179 558,118 515,71C472,24 412,0 335,0C258,0 197,18 153,54C109,90 83,138 74,197l111,0C192,166 209,141 234,123C259,104 293,95 336,95C379,95 412,109 436,138C459,167 471,205 471,253C471,300 459,337 435,363C411,388 376,401 329,401C296,401 269,393 247,377C224,360 208,338 198,310l-108,0z"
   id="glyph52" />
<glyph
   unicode="6"
   horiz-adv-x="642"
   d="M471,240C471,284 459,320 436,347C412,374 378,387 335,387C292,387 256,375 228,351C199,326 185,291 185,245C185,199 198,163 225,136C251,109 286,95 331,95C376,95 410,108 435,134C459,160 471,195 471,240M331,652C278,652 239,632 213,592C187,551 173,484 172,391C189,420 215,443 248,459C281,475 317,483 356,483C423,483 477,462 518,419C559,376 580,319 580,246C580,173 559,113 517,68C475,23 416,0 341,0C238,0 167,35 128,104C108,139 94,178 86,223C78,267 74,320 74,381C74,625 160,747 332,747C399,747 451,729 490,693C528,657 550,613 557,560l-105,0C437,621 397,652 331,652z"
   id="glyph54" />
<glyph
   unicode="7"
   horiz-adv-x="560"
   d="M40,726l482,0l0,-85l-278,-641l-125,0l291,631l-370,0z"
   id="glyph56" />
<glyph
   unicode="8"
   horiz-adv-x="638"
   d="M466,212C466,253 453,284 426,307C399,330 364,341 320,341C275,341 239,330 212,308C184,286 170,254 170,213C170,171 183,138 210,114C237,89 273,77 319,77C364,77 400,89 427,114C453,139 466,171 466,212M450,544C450,579 438,607 415,627C392,647 360,657 320,657C279,657 247,647 224,627C201,607 189,579 189,544C189,508 201,480 226,459C250,438 281,427 319,427C357,427 388,438 413,459C438,480 450,509 450,544M79,555C79,611 100,658 142,696C183,733 242,752 319,752C396,752 455,733 497,696C538,658 559,611 559,555C559,518 550,485 531,457C512,428 486,406 455,391C493,376 523,353 545,321C567,289 578,251 578,206C578,138 554,84 506,43C458,2 396,-18 320,-18C243,-18 181,2 133,43C85,84 61,138 61,206C61,251 72,290 94,322C116,354 146,377 183,391C114,426 79,480 79,555z"
   id="glyph58" />
<glyph
   unicode="9"
   horiz-adv-x="635"
   d="M186,510C186,468 198,434 222,408C245,381 279,368 323,368C367,368 401,381 424,406C447,431 458,465 458,509C458,552 446,587 422,613C397,638 364,651 322,651C280,651 247,638 223,612C198,585 186,551 186,510M334,96C381,96 416,115 438,152C460,189 471,253 471,343C455,320 433,303 404,291C375,278 343,272 309,272C242,272 186,292 143,333C99,374 77,431 77,505C77,578 99,637 142,681C185,724 244,746 319,746C410,746 474,716 513,656C551,595 570,501 570,374C570,247 552,153 517,92C482,31 418,1 327,1C256,1 201,20 162,57C123,94 102,141 97,198l105,0C215,130 259,96 334,96z"
   id="glyph60" />
<glyph
   unicode=":"
   horiz-adv-x="307"
   d="M217,487C217,468 210,452 197,439C184,426 168,419 149,419C130,419 113,426 100,439C87,452 80,468 80,487C80,506 87,523 100,536C113,549 130,556 149,556C168,556 184,549 197,536C210,523 217,506 217,487M217,68C217,49 210,33 197,20C184,7 168,0 149,0C130,0 113,7 100,20C87,33 80,50 80,69C80,88 87,104 100,117C113,130 129,137 148,137C167,137 184,130 197,117C210,104 217,87 217,68z"
   id="glyph62" />
<glyph
   unicode=";"
   horiz-adv-x="304"
   d="M212,440C199,427 182,420 163,420C144,420 128,427 115,440C102,453 95,470 95,489C95,508 102,524 115,537C128,550 144,557 163,557C182,557 199,550 212,537C225,524 232,507 232,488C232,469 225,453 212,440M102,78l108,0C236,-21 231,-88 196,-124C177,-145 148,-155 111,-155l0,50C128,-105 140,-101 148,-93C155,-85 159,-72 159,-53l0,21l-57,0z"
   id="glyph64" />
<glyph
   unicode="&lt;"
   horiz-adv-x="612"
   d="M241,361l231,-227l-144,0l-230,227l230,227l144,0z"
   id="glyph66" />
<glyph
   unicode="="
   horiz-adv-x="774"
   d="M121,424l0,101l532,0l0,-101M121,197l0,101l532,0l0,-101z"
   id="glyph68" />
<glyph
   unicode="&gt;"
   horiz-adv-x="590"
   d="M112,134l231,227l-231,227l144,0l230,-227l-230,-227z"
   id="glyph70" />
<glyph
   unicode="?"
   horiz-adv-x="633"
   d="M209,14C196,27 189,44 189,63C189,82 196,99 209,112C222,125 239,132 258,132C277,132 293,125 306,112C319,99 326,82 326,63C326,44 319,27 306,14C293,1 277,-6 258,-6C239,-6 222,1 209,14M309,336l0,-122l-108,0l0,200l48,0C312,413 358,422 389,439C419,456 434,489 434,539C434,574 424,602 404,622C383,642 355,652 319,652C283,652 255,642 234,623C213,604 203,577 203,542l-107,0C95,603 115,653 156,691C197,729 251,748 319,748C386,748 441,729 482,692C523,655 543,602 543,534C543,465 523,415 484,384C445,353 386,337 309,336z"
   id="glyph72" />
<glyph
   unicode="@"
   horiz-adv-x="1192"
   d="M49,213C49,323 76,422 130,511C184,600 258,669 353,719C448,768 553,793 669,793C811,793 926,754 1013,675C1100,596 1143,491 1143,359C1143,256 1114,169 1056,98C998,27 933,-9 860,-9C818,-9 787,2 766,25C745,48 733,77 732,114C683,32 615,-9 530,-9C461,-9 406,18 363,73C320,128 304,196 316,279C328,362 364,429 424,481C484,533 552,559 629,559C706,559 765,534 808,484C850,433 865,369 854,292l-22,-149C827,107 839,89 869,89C905,89 940,115 974,167C1008,218 1025,283 1025,360C1025,463 992,545 926,608C860,670 769,701 654,701C513,701 397,654 305,560C212,466 166,350 166,213C166,96 203,4 276,-61C349,-127 450,-161 578,-164l-23,-92C404,-253 282,-210 189,-127C96,-44 49,70 49,213M457,142C482,107 516,89 558,89C600,89 639,107 675,142C710,177 732,222 740,276C748,329 739,374 714,409C688,444 654,461 612,461C570,461 531,444 496,409C460,374 438,329 430,275C422,221 431,177 457,142z"
   id="glyph74" />
<glyph
   unicode="A"
   horiz-adv-x="697"
   d="M544,0l-50,142l-291,0l-50,-142l-119,0l249,696l132,0l249,-696M234,231l229,0l-114,327z"
   id="glyph76" />
<glyph
   unicode="B"
   horiz-adv-x="630"
   d="M75,695l265,0C411,695 467,678 506,643C545,608 565,564 565,511C565,433 520,382 430,357C475,350 512,330 540,297C567,264 581,226 581,183C581,130 560,86 519,52C478,17 422,0 353,0l-278,0M189,606l0,-206l141,0C367,400 397,409 418,427C439,445 449,470 449,503C449,535 439,560 418,579C397,597 367,606 330,606M189,89l154,0C382,89 412,99 434,118C456,137 467,164 467,199C467,233 455,260 432,281C409,301 378,311 339,311l-150,0z"
   id="glyph78" />
<glyph
   unicode="C"
   horiz-adv-x="773"
   d="M392,704C466,704 532,686 590,650C647,613 689,562 715,495l-137,0C541,565 479,600 392,600C322,600 265,577 221,531C176,485 154,424 154,349C154,273 176,212 221,166C265,120 322,97 392,97C479,97 541,132 578,202l137,0C689,135 647,84 590,48C532,12 466,-6 392,-6C293,-6 209,27 140,94C71,161 37,246 37,349C37,452 71,537 140,604C209,671 293,704 392,704z"
   id="glyph80" />
<glyph
   unicode="D"
   horiz-adv-x="709"
   d="M189,87l113,0C383,87 445,110 489,156C532,202 554,265 554,346C554,426 532,489 489,535C445,580 383,603 302,603l-113,0M302,695C414,695 504,664 571,601C638,538 671,453 671,346C671,239 638,154 571,93C504,31 414,0 302,0l-227,0l0,695z"
   id="glyph82" />
<glyph
   unicode="E"
   horiz-adv-x="524"
   d="M459,696l0,-89l-270,0l0,-211l240,0l0,-88l-240,0l0,-219l270,0l0,-89l-384,0l0,696z"
   id="glyph84" />
<glyph
   unicode="F"
   horiz-adv-x="515"
   d="M75,0l0,695l409,0l0,-89l-295,0l0,-211l230,0l0,-88l-230,0l0,-307z"
   id="glyph86" />
<glyph
   unicode="G"
   horiz-adv-x="773"
   d="M392,704C466,704 532,686 590,650C647,613 689,562 715,495l-137,0C541,565 479,600 392,600C322,600 265,577 221,531C176,485 154,424 154,349C154,273 176,212 221,166C265,120 320,97 386,97C452,97 505,115 544,150C583,185 606,232 614,292l-261,0l0,89l383,0l0,-89C725,209 688,138 624,81C560,23 481,-6 386,-6C291,-6 209,27 140,94C71,161 37,246 37,349C37,452 71,537 140,604C209,671 293,704 392,704z"
   id="glyph88" />
<glyph
   unicode="H"
   horiz-adv-x="705"
   d="M516,695l114,0l0,-695l-114,0l0,307l-327,0l0,-307l-114,0l0,695l114,0l0,-300l327,0z"
   id="glyph90" />
<glyph
   unicode="I"
   horiz-adv-x="264"
   d="M75,0l0,695l114,0l0,-695z"
   id="glyph92" />
<glyph
   unicode="J"
   horiz-adv-x="564"
   d="M339,194l0,501l115,0l0,-501C454,132 435,83 398,47C360,11 310,-7 249,-7C188,-7 138,11 101,47C63,83 44,132 44,194l115,0C160,163 168,139 183,121C198,103 220,94 249,94C278,94 301,103 316,122C331,140 339,164 339,194z"
   id="glyph94" />
<glyph
   unicode="K"
   horiz-adv-x="633"
   d="M189,0l-114,0l0,695l114,0l0,-317l270,317l149,0l-314,-349l314,-346l-150,0l-269,311z"
   id="glyph96" />
<glyph
   unicode="L"
   horiz-adv-x="444"
   d="M75,695l114,0l0,-608l235,0l0,-87l-349,0z"
   id="glyph98" />
<glyph
   unicode="M"
   horiz-adv-x="882"
   d="M807,695l0,-695l-114,0l0,476l-212,-476l-79,0l-213,476l0,-476l-114,0l0,695l123,0l244,-545l243,545z"
   id="glyph100" />
<glyph
   unicode="N"
   horiz-adv-x="721"
   d="M532,696l114,0l0,-696l-114,0l-343,519l0,-519l-114,0l0,696l114,0l343,-518z"
   id="glyph102" />
<glyph
   unicode="O"
   horiz-adv-x="784"
   d="M392,96C462,96 519,119 564,166C608,212 630,273 630,349C630,424 608,485 564,531C519,577 462,600 392,600C322,600 265,577 221,531C176,485 154,424 154,349C154,273 176,212 221,166C265,119 322,96 392,96M393,-7C293,-7 209,27 140,94C71,161 37,246 37,349C37,452 71,537 140,604C209,671 293,704 393,704C492,704 576,671 645,604C713,537 747,452 747,349C747,246 713,161 645,94C576,27 492,-7 393,-7z"
   id="glyph104" />
<glyph
   unicode="P"
   horiz-adv-x="595"
   d="M315,282l-126,0l0,-282l-114,0l0,695l240,0C394,695 454,676 497,637C540,598 561,549 561,491C561,432 541,383 501,343C460,302 398,282 315,282M189,371l126,0C358,371 391,381 412,402C433,423 444,452 444,489C444,526 433,554 412,575C391,596 358,606 315,606l-126,0z"
   id="glyph106" />
<glyph
   unicode="Q"
   horiz-adv-x="787"
   d="M392,-7C293,-7 209,27 140,94C71,161 37,246 37,349C37,452 71,537 140,604C209,671 293,704 393,704C492,704 576,671 645,604C713,537 747,452 747,349C747,285 733,227 706,176C678,124 640,82 591,51l167,-177l-145,0l-122,132C461,-3 428,-7 392,-7M392,600C322,600 265,577 221,531C176,485 154,424 154,349C154,273 176,212 221,166C265,119 322,96 392,96C462,96 519,119 564,166C608,212 630,273 630,349C630,424 608,485 564,531C519,577 462,600 392,600z"
   id="glyph108" />
<glyph
   unicode="R"
   horiz-adv-x="632"
   d="M189,282l0,-282l-114,0l0,695l240,0C394,695 454,676 497,637C540,598 561,548 561,488C561,441 547,399 519,362C490,325 447,300 388,289l184,-289l-139,0l-174,282M189,606l0,-235l126,0C358,371 391,381 412,402C433,423 444,452 444,489C444,526 433,554 412,575C391,596 358,606 315,606z"
   id="glyph110" />
<glyph
   unicode="S"
   horiz-adv-x="604"
   d="M60,185l122,0C185,154 196,130 216,112C236,94 265,85 304,85C343,85 373,95 396,115C418,135 429,159 429,186C429,213 422,235 409,250C395,265 377,277 356,285C334,292 310,299 284,305C258,311 232,318 206,326C179,334 155,344 134,357C112,370 94,388 81,413C67,437 60,467 60,502C60,563 82,612 126,649C169,686 226,704 296,704C365,704 421,688 463,656C504,624 527,578 532,517l-126,0C403,544 392,566 372,584C352,602 325,611 291,611C257,611 229,602 208,585C187,568 176,543 176,510C176,477 189,451 214,434C239,417 270,404 306,396C342,388 378,379 414,369C450,358 481,339 506,311C531,283 544,243 544,192C544,141 522,95 479,54C436,13 378,-7 305,-7C232,-7 173,10 128,44C83,78 60,125 60,185z"
   id="glyph112" />
<glyph
   unicode="T"
   horiz-adv-x="564"
   d="M39,606l0,89l485,0l0,-89l-185,0l0,-606l-114,0l0,606z"
   id="glyph114" />
<glyph
   unicode="U"
   horiz-adv-x="690"
   d="M74,254l0,441l114,0l0,-441C188,201 202,162 230,135C257,108 296,95 346,95C395,95 434,108 462,135C489,162 503,201 503,254l0,441l114,0l0,-441C617,170 591,106 539,61C486,16 421,-7 344,-7C266,-7 202,15 151,60C100,105 74,169 74,254z"
   id="glyph116" />
<glyph
   unicode="V"
   horiz-adv-x="694"
   d="M281,0l-262,695l122,0l205,-577l207,577l121,0l-261,-695z"
   id="glyph118" />
<glyph
   unicode="W"
   horiz-adv-x="999"
   d="M858,695l122,0l-206,-695l-129,0l-146,526l-155,-526l-128,-1l-197,696l121,0l144,-566l156,566l128,0l145,-563z"
   id="glyph120" />
<glyph
   unicode="X"
   horiz-adv-x="660"
   d="M611,695l-217,-348l216,-347l-128,0l-157,252l-147,-252l-128,0l216,347l-216,348l128,0l157,-253l148,253z"
   id="glyph122" />
<glyph
   unicode="Y"
   horiz-adv-x="605"
   d="M360,0l-114,0l0,252l-231,443l127,0l160,-339l160,339l128,0l-230,-443z"
   id="glyph124" />
<glyph
   unicode="Z"
   horiz-adv-x="558"
   d="M508,695l0,-89l-327,-517l327,0l0,-89l-458,0l0,89l326,517l-326,0l0,89z"
   id="glyph126" />
<glyph
   unicode="["
   horiz-adv-x="485"
   d="M148,-176l0,1120l208,0l0,-94l-101,0l0,-931l101,0l0,-95z"
   id="glyph128" />
<glyph
   unicode="\"
   horiz-adv-x="717"
   d="M276,944l300,-1119l-112,0l-300,1119z"
   id="glyph130" />
<glyph
   unicode="]"
   horiz-adv-x="484"
   d="M336,944l0,-1120l-208,0l0,95l102,0l0,931l-102,0l0,94z"
   id="glyph132" />
<glyph
   unicode="^"
   horiz-adv-x="654"
   d="M500,168l-172,390l-174,-390l-118,0l237,528l108,0l238,-528z"
   id="glyph134" />
<glyph
   unicode="_"
   horiz-adv-x="798"
   d="M126,-146l0,106l558,0l0,-106z"
   id="glyph136" />
<glyph
   unicode="`"
   horiz-adv-x="254"
   d="M10,699l0,97l221,-122l0,-84z"
   id="glyph138" />
<glyph
   unicode="a"
   horiz-adv-x="678"
   d="M439,141C472,174 488,219 488,276C488,333 472,378 439,411C406,444 366,461 321,461C276,461 237,445 204,412C171,379 154,335 154,278C154,221 171,176 204,142C237,107 276,90 321,90C366,90 406,107 439,141M297,560C340,560 379,550 412,531C445,511 470,485 488,453l0,98l115,0l0,-551l-115,0l0,103C469,69 444,42 411,22C378,1 340,-9 297,-9C224,-9 162,18 112,72C62,125 37,194 37,278C37,361 62,429 112,482C161,534 223,560 297,560z"
   id="glyph140" />
<glyph
   unicode="b"
   horiz-adv-x="678"
   d="M474,142C507,176 524,221 524,278C524,335 508,379 475,412C442,445 402,461 357,461C311,461 272,444 239,411C206,378 189,333 189,276C189,219 206,174 239,141C272,107 311,90 356,90C401,90 441,107 474,142M381,560C455,560 517,534 566,482C615,429 640,361 640,278C640,194 615,125 566,72C516,18 454,-9 381,-9C338,-9 300,1 267,22C234,42 208,69 189,103l0,-103l-114,0l0,740l114,0l0,-287C208,485 234,511 267,531C300,550 338,560 381,560z"
   id="glyph142" />
<glyph
   unicode="c"
   horiz-adv-x="600"
   d="M307,560C374,560 429,544 473,513C516,481 546,436 561,377l-123,0C417,435 374,464 307,464C260,464 223,448 196,415C168,382 154,335 154,276C154,217 168,170 196,137C223,104 260,87 307,87C373,87 417,116 438,174l123,0C545,118 515,74 471,41C427,8 372,-9 307,-9C227,-9 162,17 112,69C62,121 37,190 37,276C37,361 62,430 113,482C163,534 228,560 307,560z"
   id="glyph144" />
<glyph
   unicode="d"
   horiz-adv-x="678"
   d="M439,141C472,174 488,219 488,276C488,333 472,378 439,411C406,444 366,461 321,461C276,461 237,445 204,412C171,379 154,335 154,278C154,221 171,176 204,142C237,107 276,90 321,90C366,90 406,107 439,141M297,560C340,560 379,550 412,531C445,511 470,485 488,453l0,287l115,0l0,-740l-115,0l0,103C469,69 444,42 411,22C378,1 340,-9 297,-9C224,-9 162,18 112,72C62,125 37,194 37,278C37,361 62,429 112,482C161,534 223,560 297,560z"
   id="glyph146" />
<glyph
   unicode="e"
   horiz-adv-x="617"
   d="M307,-9C227,-9 162,17 112,69C62,121 37,190 37,276C37,362 62,431 113,483C164,534 229,560 310,560C390,560 455,535 505,486C555,436 580,371 580,291C580,272 579,254 576,237l-422,0C157,191 172,155 201,128C229,101 264,87 307,87C369,87 413,113 438,164l123,0C544,113 514,72 470,40C426,7 372,-9 307,-9M155,315l306,0C460,360 445,397 416,424C387,451 351,464 309,464C267,464 232,451 204,424C175,397 159,360 155,315z"
   id="glyph148" />
<glyph
   unicode="f"
   horiz-adv-x="332"
   d="M306,551l0,-93l-102,0l0,-458l-115,0l0,458l-65,0l0,93l65,0l0,39C89,653 106,700 140,729C173,758 226,772 298,772l0,-95C263,677 239,671 225,658C211,645 204,622 204,590l0,-39z"
   id="glyph150" />
<glyph
   unicode="g"
   horiz-adv-x="678"
   d="M297,560C340,560 379,550 412,531C445,511 470,485 488,453l0,98l115,0l0,-560C603,-86 579,-149 532,-198C484,-247 420,-272 341,-272C262,-272 197,-254 148,-219C99,-184 71,-137 64,-77l113,0C186,-106 204,-129 233,-146C261,-164 296,-173 339,-173C382,-173 417,-159 446,-131C474,-103 488,-62 488,-9l0,112C469,69 444,42 411,22C378,1 340,-9 297,-9C224,-9 162,18 112,72C62,125 37,194 37,278C37,361 62,429 112,482C161,534 223,560 297,560M439,141C472,174 488,219 488,276C488,333 472,378 439,411C406,444 366,461 321,461C276,461 237,445 204,412C171,379 154,335 154,278C154,221 171,176 204,142C237,107 276,90 321,90C366,90 406,107 439,141z"
   id="glyph152" />
<glyph
   unicode="h"
   horiz-adv-x="649"
   d="M189,740l0,-276C226,528 284,560 365,560C427,560 478,539 519,498C559,457 579,399 579,325l0,-325l-113,0l0,308C466,357 454,395 429,422C404,448 371,461 328,461C285,461 252,448 227,422C202,395 189,357 189,308l0,-308l-114,0l0,740z"
   id="glyph154" />
<glyph
   unicode="i"
   horiz-adv-x="264"
   d="M205,697C205,676 198,659 184,645C170,631 153,624 133,624C112,624 95,631 81,645C67,659 60,676 60,697C60,718 67,735 81,749C95,763 112,770 133,770C153,770 170,763 184,749C198,735 205,718 205,697M75,0l0,551l114,0l0,-551z"
   id="glyph156" />
<glyph
   unicode="j"
   horiz-adv-x="264"
   d="M75,551l114,0l0,-659C189,-211 136,-262 31,-262l-59,0l0,96l39,0C34,-166 51,-161 61,-152C70,-143 75,-129 75,-108M205,697C205,676 198,659 184,645C170,631 153,624 133,624C112,624 95,631 81,645C67,659 60,676 60,697C60,718 67,735 81,749C95,763 112,770 133,770C153,770 170,763 184,749C198,735 205,718 205,697z"
   id="glyph158" />
<glyph
   unicode="k"
   horiz-adv-x="554"
   d="M189,0l-114,0l0,740l114,0l0,-430l200,241l158,0l-254,-276l254,-275l-154,0l-204,237z"
   id="glyph160" />
<glyph
   unicode="l"
   horiz-adv-x="264"
   d="M75,0l0,740l114,0l0,-740z"
   id="glyph162" />
<glyph
   unicode="m"
   horiz-adv-x="1039"
   d="M189,551l0,-87C226,528 284,560 365,560C408,560 446,550 479,530C512,510 538,481 555,443C574,480 601,508 636,529C670,550 709,560 752,560C815,560 867,540 908,499C949,458 969,400 969,325l0,-325l-114,0l0,308C855,357 843,395 818,422C793,448 760,461 717,461C674,461 641,448 616,422C591,395 579,357 579,308l0,-308l-113,0l0,308C466,357 454,395 429,422C404,448 371,461 328,461C285,461 252,448 227,422C202,395 189,357 189,308l0,-308l-114,0l0,551z"
   id="glyph164" />
<glyph
   unicode="n"
   horiz-adv-x="649"
   d="M189,551l0,-87C226,528 284,560 365,560C427,560 478,539 519,498C559,457 579,399 579,325l0,-325l-113,0l0,308C466,357 454,395 429,422C404,448 371,461 328,461C285,461 252,448 227,422C202,395 189,357 189,308l0,-308l-114,0l0,551z"
   id="glyph166" />
<glyph
   unicode="o"
   horiz-adv-x="638"
   d="M433,137C466,170 483,217 483,276C483,335 467,382 435,415C402,448 363,464 317,464C271,464 232,448 201,415C170,382 154,335 154,276C154,216 169,170 200,137C231,104 269,87 315,87C360,87 400,104 433,137M315,-9C234,-9 168,17 116,70C64,122 38,191 38,276C38,361 65,429 119,482C172,534 239,560 319,560C399,560 466,534 520,482C573,429 600,361 600,276C600,191 573,123 518,70C463,17 395,-9 315,-9z"
   id="glyph168" />
<glyph
   unicode="p"
   horiz-adv-x="678"
   d="M474,142C507,176 524,221 524,278C524,335 508,379 475,412C442,445 402,461 357,461C311,461 272,444 239,411C206,378 189,333 189,276C189,219 206,174 239,141C272,107 311,90 356,90C401,90 441,107 474,142M381,560C455,560 517,534 566,482C615,429 640,361 640,278C640,194 615,125 566,72C516,18 454,-9 381,-9C338,-9 300,1 267,22C234,42 208,69 189,103l0,-365l-114,0l0,813l114,0l0,-98C208,485 234,511 267,531C300,550 338,560 381,560z"
   id="glyph170" />
<glyph
   unicode="q"
   horiz-adv-x="678"
   d="M439,141C472,174 488,219 488,276C488,333 472,378 439,411C406,444 366,461 321,461C276,461 237,445 204,412C171,379 154,335 154,278C154,221 171,176 204,142C237,107 276,90 321,90C366,90 406,107 439,141M297,560C340,560 379,550 412,531C445,511 470,485 488,453l0,98l115,0l0,-813l-115,0l0,365C469,69 444,42 411,22C378,1 340,-9 297,-9C224,-9 162,18 112,72C62,125 37,194 37,278C37,361 62,429 112,482C161,534 223,560 297,560z"
   id="glyph172" />
<glyph
   unicode="r"
   horiz-adv-x="384"
   d="M189,551l0,-96C224,525 279,560 354,560l0,-118l-29,0C280,442 247,431 224,408C201,385 189,346 189,290l0,-290l-114,0l0,551z"
   id="glyph174" />
<glyph
   unicode="s"
   horiz-adv-x="534"
   d="M50,393C50,440 70,479 109,512C148,544 200,560 264,560C328,560 379,544 417,513C454,481 474,438 477,383l-117,0C358,410 349,432 332,447C315,462 291,470 260,470C229,470 205,463 188,450C171,436 162,418 162,396C162,373 173,356 195,343C217,330 244,321 276,315C307,309 339,302 371,293C402,284 429,269 451,246C473,223 484,192 484,153C484,105 464,66 424,36C383,6 331,-9 268,-9C205,-9 153,6 114,37C75,68 53,111 49,168l118,0C169,141 179,119 197,104C215,89 240,81 271,81C302,81 326,88 345,102C363,115 372,133 372,156C372,179 361,196 339,209C317,222 290,231 259,238C227,244 195,251 164,260C132,268 105,283 83,305C61,327 50,356 50,393z"
   id="glyph176" />
<glyph
   unicode="t"
   horiz-adv-x="372"
   d="M342,458l-134,0l0,-305C208,132 213,118 223,109C232,100 249,95 272,95l70,0l0,-95l-90,0C146,0 93,51 93,153l0,305l-65,0l0,93l65,0l0,137l115,0l0,-137l134,0z"
   id="glyph178" />
<glyph
   unicode="u"
   horiz-adv-x="649"
   d="M460,551l114,0l0,-551l-114,0l0,87C424,24 365,-8 284,-8C222,-8 171,13 131,54C90,95 70,152 70,226l0,325l113,0l0,-308C183,194 195,156 220,130C245,103 278,90 321,90C364,90 398,103 423,130C448,156 460,194 460,243z"
   id="glyph180" />
<glyph
   unicode="v"
   horiz-adv-x="576"
   d="M10,551l122,0l156,-449l156,449l123,0l-210,-551l-138,0z"
   id="glyph182" />
<glyph
   unicode="w"
   horiz-adv-x="825"
   d="M703,551l112,0l-171,-551l-120,0l-111,407l-111,-407l-120,0l-172,551l116,0l115,-443l117,443l119,0l112,-441z"
   id="glyph184" />
<glyph
   unicode="x"
   horiz-adv-x="499"
   d="M489,551l-178,-272l178,-279l-129,0l-119,187l-112,-187l-119,0l178,271l-178,280l129,0l119,-187l112,187z"
   id="glyph186" />
<glyph
   unicode="y"
   horiz-adv-x="582"
   d="M227,9l-217,542l127,0l155,-420l161,420l118,0l-338,-810l-118,0z"
   id="glyph188" />
<glyph
   unicode="z"
   horiz-adv-x="471"
   d="M426,551l0,-93l-250,-365l250,0l0,-93l-382,0l0,93l251,365l-251,0l0,93z"
   id="glyph190" />
<glyph
   unicode="{"
   horiz-adv-x="543"
   d="M335,241C335,220 332,190 327,151C322,112 319,78 319,49C319,-17 331,-71 355,-114C378,-157 410,-186 450,-201l0,-16l-115,0C250,-179 208,-96 208,32C208,56 211,89 217,131C222,172 225,204 225,227C225,297 192,338 126,349l0,46C192,405 225,446 225,517C225,540 222,572 217,614C211,655 208,688 208,712C208,840 250,923 335,961l115,0l0,-16C410,930 378,902 355,859C331,816 319,761 319,695C319,666 322,632 327,593C332,554 335,524 335,503C335,430 300,387 231,373l0,-2C300,357 335,314 335,241z"
   id="glyph192" />
<glyph
   unicode="|"
   horiz-adv-x="324"
   d="M105,801l114,0l0,-914l-114,0z"
   id="glyph194" />
<glyph
   unicode="}"
   horiz-adv-x="536"
   d="M208,503C208,524 211,554 216,593C221,632 224,666 224,695C224,761 212,816 189,859C166,902 134,930 94,945l0,16l115,0C293,924 335,841 335,712C335,688 332,655 327,614C321,572 318,540 318,517C318,446 351,405 418,395l0,-46C351,338 318,298 318,227C318,204 321,172 327,131C332,89 335,56 335,32C335,-97 293,-180 209,-217l-115,0l0,16C134,-186 166,-157 189,-114C212,-71 224,-17 224,49C224,78 221,112 216,151C211,190 208,220 208,241C208,314 243,357 313,371l0,2C243,388 208,431 208,503z"
   id="glyph196" />
<glyph
   unicode="~"
   horiz-adv-x="553"
   d="M195,403C223,403 254,392 289,371C323,349 349,338 366,338C383,338 398,344 411,355C424,366 431,381 434,401l83,0C498,291 445,236 357,236C329,236 298,247 265,269C231,290 205,301 188,301C170,301 155,296 142,285C129,274 121,258 118,238l-82,0C55,348 108,403 195,403z"
   id="glyph198" />
<glyph
   unicode=" "
   horiz-adv-x="300"
   id="glyph200" />
<glyph
   unicode="¡"
   horiz-adv-x="431"
   d="M153,-189l13,529l94,0l14,-529M148,492C148,511 155,527 168,540C181,553 198,560 217,560C236,560 252,553 265,540C278,527 285,511 285,492C285,473 278,456 265,443C252,430 235,423 216,423C197,423 181,430 168,443C155,456 148,473 148,492z"
   id="glyph202" />
<glyph
   unicode="¢"
   horiz-adv-x="690"
   d="M329,427C282,427 244,412 216,382C188,352 174,311 174,259C174,207 188,166 216,137C244,107 282,92 329,92C399,92 442,119 459,174l106,0C560,127 539,88 502,56C465,24 418,5 361,-1l0,-87l-65,0l0,87C222,6 165,33 126,81C86,129 66,188 66,259C66,330 86,389 126,438C165,486 222,513 296,520l0,87l65,0l0,-87C418,514 465,495 502,463C539,431 560,392 565,345l-106,0C442,400 399,427 329,427z"
   id="glyph204" />
<glyph
   unicode="£"
   horiz-adv-x="646"
   d="M558,91l0,-93l-463,0l-20,62C103,90 124,120 137,150C150,179 157,216 157,260C157,273 155,287 152,302l-110,0l0,79l85,0C113,423 106,464 106,503C106,570 127,624 169,663C211,702 267,721 336,721C405,721 458,701 495,661C532,621 551,570 552,508l-104,0C448,544 439,573 420,594C401,615 373,625 336,625C298,625 268,615 247,594C225,573 214,544 214,507C214,469 222,427 237,381l194,0l0,-79l-171,0C263,287 265,272 265,259C265,194 243,138 198,91z"
   id="glyph206" />
<glyph
   unicode="¤"
   horiz-adv-x="548"
   d="M429,274l59,-59l-50,-51l-62,61C347,208 313,199 274,199C235,199 200,207 171,224l-60,-60l-51,51l58,59C99,303 89,337 89,378C89,419 99,453 120,482l-60,59l51,51l62,-62C203,547 237,555 275,555C312,555 346,547 376,530l62,62l50,-51l-59,-59C450,452 460,417 460,377C460,337 450,303 429,274M206,295C223,276 245,266 272,266C299,266 322,276 341,295C360,314 369,342 369,377C369,412 360,440 341,460C322,479 300,489 273,489C246,489 224,479 206,460C188,440 179,412 179,377C179,342 188,314 206,295z"
   id="glyph208" />
<glyph
   unicode="¥"
   horiz-adv-x="605"
   d="M560,395l0,-82l-169,-2l-31,-59l0,-30l200,0l0,-82l-200,0l0,-140l-114,0l0,140l-200,0l0,82l200,0l0,30l-31,59l-169,2l0,82l125,0l-156,300l127,0l160,-339l160,339l128,0l-156,-300z"
   id="glyph210" />
<glyph
   unicode="¦"
   horiz-adv-x="324"
   d="M219,413l-114,0l0,388l114,0M105,275l114,0l0,-388l-114,0z"
   id="glyph212" />
<glyph
   unicode="§"
   horiz-adv-x="578"
   d="M498,535l-114,0C379,592 347,621 288,621C221,621 188,595 188,544C188,521 198,503 219,488C240,473 282,455 347,432C411,409 459,383 490,354C521,325 537,289 537,244C537,171 496,118 415,84C474,50 504,8 504,-41C504,-91 485,-132 446,-164C407,-196 355,-212 292,-212C229,-212 178,-197 139,-168C100,-139 80,-99 80,-47l114,0C199,-104 231,-133 290,-133C357,-133 390,-107 390,-56C390,-33 380,-15 359,0C338,15 296,34 232,57C167,80 119,105 88,134C57,163 41,197 41,238C41,319 82,374 164,404C104,438 74,480 74,530C74,579 94,620 133,652C172,684 223,700 286,700C349,700 401,686 440,657C479,628 498,587 498,535M288,348C249,348 217,338 194,318C170,298 158,274 158,245C158,216 170,191 195,171C219,150 251,140 291,140C330,140 362,150 385,170C408,190 420,215 420,244C420,273 408,298 384,318C359,338 327,348 288,348z"
   id="glyph214" />
<glyph
   unicode="¨"
   horiz-adv-x="312"
   d="M302,680C302,663 296,649 285,638C273,626 259,620 242,620C225,620 210,626 199,637C188,648 182,663 182,680C182,697 188,711 200,723C211,734 225,740 242,740C259,740 273,734 285,723C296,711 302,697 302,680M130,680C130,663 124,649 113,638C101,626 87,620 70,620C53,620 38,626 27,637C16,648 10,663 10,680C10,697 16,711 28,723C39,734 53,740 70,740C87,740 101,734 113,723C124,711 130,697 130,680z"
   id="glyph216" />
<glyph
   unicode="©"
   horiz-adv-x="789"
   d="M646,605C711,538 743,453 743,348C743,243 711,158 646,91C581,24 498,-9 395,-9C292,-9 208,24 143,91C78,158 46,243 46,348C46,453 78,538 143,605C208,671 292,704 395,704C498,704 581,671 646,605M395,659C303,659 230,631 177,575C123,518 96,443 96,349C96,254 123,179 177,122C231,65 304,36 395,36C486,36 558,65 612,122C666,179 693,254 693,349C693,443 666,518 613,575C559,631 486,659 395,659M392,119C330,119 278,140 237,183C195,225 174,280 174,349C174,418 195,473 236,515C277,557 327,578 384,578C441,578 488,565 524,540C560,514 584,478 597,431l-104,0C479,475 445,497 392,497C357,497 328,484 307,459C286,434 275,397 275,349C275,301 286,264 307,239C328,213 357,200 392,200C442,200 476,222 493,266l104,0C584,222 560,187 523,160C486,133 443,119 392,119z"
   id="glyph218" />
<glyph
   unicode="ª"
   horiz-adv-x="456"
   d="M296,446C315,466 325,493 325,528C325,563 315,590 296,610C276,630 252,640 224,640C196,640 172,630 153,610C133,590 123,563 123,529C123,494 133,467 153,447C173,426 197,416 225,416C252,416 276,426 296,446M199,709C259,709 301,687 325,642l0,61l89,0l0,-350l-89,0l0,61C300,369 258,347 199,347C152,347 112,364 80,399C47,434 31,477 31,530C31,582 47,625 80,659C112,692 152,709 199,709z"
   id="glyph220" />
<glyph
   unicode="«"
   horiz-adv-x="489"
   d="M343,295l96,-175l-110,0l-92,175l92,175l110,0M151,295l96,-175l-110,0l-92,175l92,175l110,0z"
   id="glyph222" />
<glyph
   unicode="¬"
   horiz-adv-x="748"
   d="M41,346l0,89l653,0l0,-227l-114,0l0,138z"
   id="glyph224" />
<glyph
   unicode="­"
   horiz-adv-x="585"
   d="M87,314l0,96l411,0l0,-96z"
   id="glyph226" />
<glyph
   unicode="®"
   horiz-adv-x="789"
   d="M145,605C211,671 297,704 402,704C507,704 593,671 659,605C724,538 757,453 757,348C757,243 724,158 659,91C593,24 507,-9 402,-9C297,-9 211,24 145,91C79,158 46,243 46,348C46,453 79,538 145,605M96,349C96,254 124,179 179,122C234,65 308,36 402,36C495,36 570,65 625,122C680,179 707,254 707,349C707,443 680,518 625,575C570,631 496,659 402,659C308,659 234,631 179,575C124,518 96,443 96,349M257,584l157,0C466,584 506,571 534,546C561,520 575,489 575,454C575,419 566,389 547,365C528,340 500,324 461,317l121,-189l-90,0l-114,185l-47,0l0,-185l-74,0M331,526l0,-156l83,0C443,370 464,377 479,391C493,405 500,424 500,448C500,500 471,526 414,526z"
   id="glyph228" />
<glyph
   unicode="¯"
   horiz-adv-x="386"
   d="M10,635l0,85l366,0l0,-85z"
   id="glyph230" />
<glyph
   unicode="°"
   horiz-adv-x="427"
   d="M280,443C299,462 308,490 308,525C308,560 299,588 280,608C261,627 239,637 213,637C186,637 164,627 146,608C127,588 118,560 118,525C118,489 127,462 145,443C162,424 184,414 211,414C238,414 261,424 280,443M79,396C45,429 28,472 28,525C28,578 45,621 80,654C115,686 159,702 214,702C268,702 312,686 347,654C382,621 399,578 399,525C399,472 381,429 346,396C311,363 266,347 211,347C156,347 112,363 79,396z"
   id="glyph232" />
<glyph
   unicode="±"
   horiz-adv-x="717"
   d="M613,369l-200,0l0,-144l200,0l0,-101l-509,0l0,101l200,0l0,144l-200,0l0,102l200,0l0,150l109,0l0,-150l200,0z"
   id="glyph234" />
<glyph
   unicode="²"
   horiz-adv-x="340"
   d="M298,424l0,-72l-269,0l0,66l108,79C181,531 203,563 203,593C203,608 199,621 191,630C182,639 172,643 159,643C134,643 120,630 117,605l-90,0C28,637 41,663 65,682C88,701 121,711 162,711C203,711 235,700 260,678C285,655 297,630 297,603C297,575 290,552 276,533C261,514 237,494 203,471l-73,-47z"
   id="glyph236" />
<glyph
   unicode="³"
   horiz-adv-x="342"
   d="M306,606C306,567 286,541 245,529l0,-2C288,512 309,485 309,446C309,418 295,395 268,376C240,357 205,347 162,347C119,347 85,357 59,377C33,396 19,423 18,457l88,0C111,428 130,413 161,413C176,413 189,417 199,425C208,433 213,444 213,458C213,471 208,482 198,490C188,497 175,501 159,501l-37,0l0,58l34,0C192,559 210,573 210,601C210,614 206,625 197,633C188,640 175,644 159,644C131,644 114,632 107,609l-85,0C25,639 39,664 65,683C91,702 124,711 164,711C204,711 238,701 265,681C292,660 306,635 306,606z"
   id="glyph238" />
<glyph
   unicode="´"
   horiz-adv-x="241"
   d="M10,674l221,122l0,-97l-221,-109z"
   id="glyph240" />
<glyph
   unicode="µ"
   horiz-adv-x="654"
   d="M465,551l114,0l0,-551l-114,0l0,87C429,24 370,-8 289,-8C249,-8 215,2 188,23l0,-285l-113,0l0,813l113,0l0,-308C188,194 200,156 225,130C250,103 283,90 326,90C369,90 403,103 428,130C453,156 465,194 465,243z"
   id="glyph242" />
<glyph
   unicode="¶"
   horiz-adv-x="630"
   d="M272,695l283,0l0,-695l-101,0l0,606l-67,0l0,-606l-101,0l0,282l-14,0C193,282 134,301 95,340C55,378 35,427 35,488C35,549 55,598 95,637C135,676 194,695 272,695z"
   id="glyph244" />
<glyph
   unicode="·"
   horiz-adv-x="244"
   d="M170,289C157,276 140,269 121,269C102,269 86,276 73,289C60,302 53,318 53,337C53,356 60,373 73,386C86,399 102,406 121,406C140,406 157,399 170,386C183,373 190,356 190,337C190,318 183,302 170,289z"
   id="glyph246" />
<glyph
   unicode="¸"
   horiz-adv-x="279"
   d="M139,7l0,-55C178,-48 209,-57 233,-75C257,-94 269,-120 269,-153C269,-186 257,-213 233,-232C209,-252 179,-262 142,-262l-132,0l0,72l109,0C138,-190 152,-187 161,-182C170,-177 175,-167 175,-153C175,-139 170,-129 161,-124C152,-119 138,-116 119,-116l-55,0l0,123z"
   id="glyph248" />
<glyph
   unicode="¹"
   horiz-adv-x="209"
   d="M74,352l0,284l-54,0l0,68l143,0l0,-352z"
   id="glyph250" />
<glyph
   unicode="º"
   horiz-adv-x="444"
   d="M220,414C247,414 271,424 291,444C311,464 321,492 321,528C321,564 311,592 292,613C272,633 248,643 221,643C194,643 171,633 152,613C133,593 123,565 123,528C123,491 132,463 151,444C170,424 193,414 220,414M220,347C165,347 119,364 84,397C49,430 31,474 31,529C31,583 49,627 85,660C121,693 167,709 222,709C277,709 323,693 359,660C395,627 413,583 413,529C413,475 395,431 358,398C321,364 275,347 220,347z"
   id="glyph252" />
<glyph
   unicode="»"
   horiz-adv-x="489"
   d="M159,120l-109,0l95,175l-95,175l109,0l93,-175M351,120l-109,0l95,175l-95,175l109,0l93,-175z"
   id="glyph254" />
<glyph
   unicode="¼"
   horiz-adv-x="682"
   d="M88,352l0,284l-54,0l0,68l143,0l0,-352M511,123l0,162l-99,-162M598,123l45,0l0,-56l-45,0l0,-67l-89,0l0,67l-186,0l0,50l151,236l124,0M63,0l383,696l107,0l-382,-696z"
   id="glyph256" />
<glyph
   unicode="½"
   horiz-adv-x="701"
   d="M657,71l0,-72l-269,0l0,66l108,79C540,178 562,210 562,240C562,255 558,268 550,277C541,286 531,290 518,290C493,290 479,277 476,252l-90,0C387,284 400,310 424,329C447,348 480,358 521,358C562,358 594,347 619,325C644,302 656,277 656,250C656,222 649,199 635,180C620,161 596,141 562,118l-73,-47M434,696l108,0l-371,-696l-108,0M88,352l0,284l-54,0l0,68l143,0l0,-352z"
   id="glyph258" />
<glyph
   unicode="¾"
   horiz-adv-x="742"
   d="M321,606C321,567 301,541 260,529l0,-2C303,512 324,485 324,446C324,418 310,395 283,376C255,357 220,347 177,347C134,347 100,357 74,377C48,396 34,423 33,457l88,0C126,428 145,413 176,413C191,413 204,417 214,425C223,433 228,444 228,458C228,471 223,482 213,490C203,497 190,501 174,501l-37,0l0,58l34,0C207,559 225,573 225,601C225,614 221,625 212,633C203,640 190,644 174,644C146,644 129,632 122,609l-85,0C40,639 54,664 80,683C106,702 139,711 179,711C219,711 253,701 280,681C307,660 321,635 321,606M584,123l0,162l-99,-162M671,123l45,0l0,-56l-45,0l0,-67l-89,0l0,67l-186,0l0,50l151,236l124,0M139,0l402,696l107,0l-402,-696z"
   id="glyph260" />
<glyph
   unicode="¿"
   horiz-adv-x="633"
   d="M424,540C437,527 444,510 444,491C444,472 437,455 424,442C411,429 395,422 376,422C357,422 340,429 327,442C314,455 307,472 307,491C307,510 314,527 327,540C340,553 357,560 376,560C395,560 411,553 424,540M324,218l0,122l108,0l0,-200l-48,0C321,141 275,133 245,116C214,99 199,65 199,15C199,-20 209,-48 230,-68C250,-88 278,-98 314,-98C350,-98 378,-88 399,-69C420,-50 430,-23 430,12l107,0C538,-49 518,-99 477,-137C436,-175 382,-194 315,-194C247,-194 193,-175 152,-138C111,-101 90,-48 90,21C90,89 110,139 149,170C188,201 247,217 324,218z"
   id="glyph262" />
<glyph
   unicode="À"
   horiz-adv-x="697"
   d="M544,0l-50,142l-291,0l-50,-142l-119,0l249,696l132,0l249,-696M234,231l229,0l-114,327M452,819l0,-84l-221,109l0,97z"
   id="glyph264" />
<glyph
   unicode="Á"
   horiz-adv-x="697"
   d="M544,0l-50,142l-291,0l-50,-142l-119,0l249,696l132,0l249,-696M234,231l229,0l-114,327M452,941l0,-97l-221,-109l0,84z"
   id="glyph266" />
<glyph
   unicode="Â"
   horiz-adv-x="697"
   d="M544,0l-50,142l-291,0l-50,-142l-119,0l249,696l132,0l249,-696M234,231l229,0l-114,327M492,741l-143,86l-143,-86l0,89l143,83l143,-83z"
   id="glyph268" />
<glyph
   unicode="Ã"
   horiz-adv-x="697"
   d="M544,0l-50,142l-291,0l-50,-142l-119,0l249,696l132,0l249,-696M234,231l229,0l-114,327M293,796C268,796 254,782 250,753l-64,0C191,792 204,821 224,841C244,860 266,870 291,870C316,870 340,863 363,848C386,833 403,826 415,826C440,826 454,840 458,868l64,0C517,829 504,800 484,781C464,761 442,751 417,751C392,751 369,759 346,774C323,789 305,796 293,796z"
   id="glyph270" />
<glyph
   unicode="Ä"
   horiz-adv-x="697"
   d="M544,0l-50,142l-291,0l-50,-142l-119,0l249,696l132,0l249,-696M234,231l229,0l-114,327M306,783C294,771 280,765 263,765C246,765 232,771 221,783C209,794 203,808 203,825C203,842 209,856 221,868C232,879 246,885 263,885C280,885 294,879 306,868C317,856 323,842 323,825C323,808 317,794 306,783M478,783C466,771 452,765 435,765C418,765 404,771 393,783C381,794 375,808 375,825C375,842 381,856 393,868C404,879 418,885 435,885C452,885 466,879 478,868C489,856 495,842 495,825C495,808 489,794 478,783z"
   id="glyph272" />
<glyph
   unicode="Å"
   horiz-adv-x="697"
   d="M544,0l-50,142l-291,0l-50,-142l-119,0l249,696l132,0l249,-696M234,231l229,0l-114,327M458,860C458,827 448,800 427,780C406,760 381,750 350,750C319,750 293,760 272,780C251,800 240,827 240,860C240,893 251,919 272,939C293,959 319,969 350,969C381,969 406,959 427,939C448,919 458,893 458,860M386,897C376,906 364,911 349,911C334,911 322,906 313,897C303,888 298,876 298,861C298,846 303,833 313,824C323,814 335,809 350,809C364,809 376,814 386,824C396,833 401,846 401,861C401,876 396,888 386,897z"
   id="glyph274" />
<glyph
   unicode="Æ"
   horiz-adv-x="921"
   d="M855,607l-269,0l0,-211l239,0l0,-88l-239,0l0,-219l269,0l0,-89l-383,0l0,142l-259,0l-77,-142l-124,0l383,696l460,0M472,231l0,386l-210,-386z"
   id="glyph276" />
<glyph
   unicode="Ç"
   horiz-adv-x="773"
   d="M392,600C322,600 265,577 221,531C176,485 154,424 154,349C154,273 176,212 221,166C265,120 322,97 392,97C479,97 541,132 578,202l137,0C691,141 654,92 603,57C552,22 494,1 428,-4l0,-44C467,-48 498,-57 522,-75C546,-94 558,-120 558,-153C558,-186 546,-213 522,-232C498,-252 468,-262 431,-262l-132,0l0,72l109,0C427,-190 441,-187 450,-182C459,-177 464,-167 464,-153C464,-139 459,-129 450,-124C441,-119 427,-116 408,-116l-55,0l0,112C262,5 187,43 127,108C67,173 37,255 37,354C37,453 71,537 140,604C209,671 293,704 392,704C466,704 532,686 590,650C647,613 689,562 715,495l-137,0C541,565 479,600 392,600z"
   id="glyph278" />
<glyph
   unicode="È"
   horiz-adv-x="524"
   d="M144,844l0,97l221,-122l0,-84M459,696l0,-89l-270,0l0,-211l240,0l0,-88l-240,0l0,-219l270,0l0,-89l-384,0l0,696z"
   id="glyph280" />
<glyph
   unicode="É"
   horiz-adv-x="524"
   d="M459,696l0,-89l-270,0l0,-211l240,0l0,-88l-240,0l0,-219l270,0l0,-89l-384,0l0,696M144,819l221,122l0,-97l-221,-109z"
   id="glyph282" />
<glyph
   unicode="Ê"
   horiz-adv-x="524"
   d="M459,696l0,-89l-270,0l0,-211l240,0l0,-88l-240,0l0,-219l270,0l0,-89l-384,0l0,696M405,830l0,-89l-143,86l-143,-86l0,89l143,83z"
   id="glyph284" />
<glyph
   unicode="Ë"
   horiz-adv-x="524"
   d="M459,696l0,-89l-270,0l0,-211l240,0l0,-88l-240,0l0,-219l270,0l0,-89l-384,0l0,696M408,825C408,808 402,794 391,783C379,771 365,765 348,765C331,765 316,771 305,783C294,794 288,808 288,825C288,842 294,856 306,868C317,879 331,885 348,885C365,885 379,879 391,868C402,856 408,842 408,825M236,825C236,808 230,794 219,783C207,771 193,765 176,765C159,765 144,771 133,783C122,794 116,808 116,825C116,842 122,856 134,868C145,879 159,885 176,885C193,885 207,879 219,868C230,856 236,842 236,825z"
   id="glyph286" />
<glyph
   unicode="Ì"
   horiz-adv-x="264"
   d="M14,844l0,97l221,-122l0,-84M75,0l0,695l114,0l0,-695z"
   id="glyph288" />
<glyph
   unicode="Í"
   horiz-adv-x="264"
   d="M14,819l221,122l0,-97l-221,-109M75,0l0,695l114,0l0,-695z"
   id="glyph290" />
<glyph
   unicode="Î"
   horiz-adv-x="264"
   d="M275,830l0,-89l-143,86l-143,-86l0,89l143,83M75,0l0,695l114,0l0,-695z"
   id="glyph292" />
<glyph
   unicode="Ï"
   horiz-adv-x="264"
   d="M278,825C278,808 272,794 261,783C249,771 235,765 218,765C201,765 186,771 175,783C164,794 158,808 158,825C158,842 164,856 176,868C187,879 201,885 218,885C235,885 249,879 261,868C272,856 278,842 278,825M106,825C106,808 100,794 89,783C77,771 63,765 46,765C29,765 14,771 3,783C-8,794 -14,808 -14,825C-14,842 -8,856 4,868C15,879 29,885 46,885C63,885 77,879 89,868C100,856 106,842 106,825M75,0l0,695l114,0l0,-695z"
   id="glyph294" />
<glyph
   unicode="Ð"
   horiz-adv-x="720"
   d="M86,695l228,0C426,695 515,664 582,601C649,538 682,453 682,346C682,239 649,154 582,93C515,31 426,0 314,0l-228,0l0,293l-77,0l0,105l77,0M201,87l113,0C395,87 457,110 500,156C543,202 565,265 565,346C565,426 543,489 500,535C457,580 395,603 314,603l-113,0l0,-205l178,0l0,-105l-178,0z"
   id="glyph296" />
<glyph
   unicode="Ñ"
   horiz-adv-x="721"
   d="M427,826C452,826 466,840 470,868l64,0C529,829 516,800 496,781C476,761 454,751 429,751C404,751 381,759 358,774C335,789 317,796 305,796C280,796 266,782 262,753l-64,0C203,792 216,821 236,841C256,860 278,870 303,870C328,870 352,863 375,848C398,833 415,826 427,826M532,696l114,0l0,-696l-114,0l-343,519l0,-519l-114,0l0,696l114,0l343,-518z"
   id="glyph298" />
<glyph
   unicode="Ò"
   horiz-adv-x="784"
   d="M274,844l0,97l221,-122l0,-84M392,96C462,96 519,119 564,166C608,212 630,273 630,349C630,424 608,485 564,531C519,577 462,600 392,600C322,600 265,577 221,531C176,485 154,424 154,349C154,273 176,212 221,166C265,119 322,96 392,96M393,-7C293,-7 209,27 140,94C71,161 37,246 37,349C37,452 71,537 140,604C209,671 293,704 393,704C492,704 576,671 645,604C713,537 747,452 747,349C747,246 713,161 645,94C576,27 492,-7 393,-7z"
   id="glyph300" />
<glyph
   unicode="Ó"
   horiz-adv-x="784"
   d="M392,96C462,96 519,119 564,166C608,212 630,273 630,349C630,424 608,485 564,531C519,577 462,600 392,600C322,600 265,577 221,531C176,485 154,424 154,349C154,273 176,212 221,166C265,119 322,96 392,96M393,-7C293,-7 209,27 140,94C71,161 37,246 37,349C37,452 71,537 140,604C209,671 293,704 393,704C492,704 576,671 645,604C713,537 747,452 747,349C747,246 713,161 645,94C576,27 492,-7 393,-7M274,819l221,122l0,-97l-221,-109z"
   id="glyph302" />
<glyph
   unicode="Ô"
   horiz-adv-x="784"
   d="M392,96C462,96 519,119 564,166C608,212 630,273 630,349C630,424 608,485 564,531C519,577 462,600 392,600C322,600 265,577 221,531C176,485 154,424 154,349C154,273 176,212 221,166C265,119 322,96 392,96M393,-7C293,-7 209,27 140,94C71,161 37,246 37,349C37,452 71,537 140,604C209,671 293,704 393,704C492,704 576,671 645,604C713,537 747,452 747,349C747,246 713,161 645,94C576,27 492,-7 393,-7M535,830l0,-89l-143,86l-143,-86l0,89l143,83z"
   id="glyph304" />
<glyph
   unicode="Õ"
   horiz-adv-x="784"
   d="M458,826C483,826 497,840 501,868l64,0C560,829 547,800 527,781C507,761 485,751 460,751C435,751 412,759 389,774C366,789 348,796 336,796C311,796 297,782 293,753l-64,0C234,792 247,821 267,841C287,860 309,870 334,870C359,870 383,863 406,848C429,833 446,826 458,826M392,96C462,96 519,119 564,166C608,212 630,273 630,349C630,424 608,485 564,531C519,577 462,600 392,600C322,600 265,577 221,531C176,485 154,424 154,349C154,273 176,212 221,166C265,119 322,96 392,96M393,-7C293,-7 209,27 140,94C71,161 37,246 37,349C37,452 71,537 140,604C209,671 293,704 393,704C492,704 576,671 645,604C713,537 747,452 747,349C747,246 713,161 645,94C576,27 492,-7 393,-7z"
   id="glyph306" />
<glyph
   unicode="Ö"
   horiz-adv-x="784"
   d="M392,96C462,96 519,119 564,166C608,212 630,273 630,349C630,424 608,485 564,531C519,577 462,600 392,600C322,600 265,577 221,531C176,485 154,424 154,349C154,273 176,212 221,166C265,119 322,96 392,96M393,-7C293,-7 209,27 140,94C71,161 37,246 37,349C37,452 71,537 140,604C209,671 293,704 393,704C492,704 576,671 645,604C713,537 747,452 747,349C747,246 713,161 645,94C576,27 492,-7 393,-7M538,825C538,808 532,794 521,783C509,771 495,765 478,765C461,765 446,771 435,783C424,794 418,808 418,825C418,842 424,856 436,868C447,879 461,885 478,885C495,885 509,879 521,868C532,856 538,842 538,825M366,825C366,808 360,794 349,783C337,771 323,765 306,765C289,765 274,771 263,783C252,794 246,808 246,825C246,842 252,856 264,868C275,879 289,885 306,885C323,885 337,879 349,868C360,856 366,842 366,825z"
   id="glyph308" />
<glyph
   unicode="×"
   horiz-adv-x="699"
   d="M575,211l-73,-73l-152,152l-152,-152l-75,75l153,152l-149,149l73,73l149,-149l149,149l75,-75l-149,-149z"
   id="glyph310" />
<glyph
   unicode="Ø"
   horiz-adv-x="784"
   d="M659,589C718,523 747,441 747,342C747,243 713,161 645,94C576,27 492,-7 392,-7C309,-7 237,16 175,63l-58,-63l-91,0l100,108C67,175 37,257 37,356C37,454 71,537 140,604C209,671 293,704 392,704C475,704 548,681 610,634l57,62l91,0M392,600C322,600 265,577 221,531C176,485 154,424 154,349C154,287 170,234 201,190l336,365C496,585 448,600 392,600M392,96C462,96 519,119 564,166C608,212 630,273 630,349C630,410 615,462 584,507l-336,-365C288,111 336,96 392,96z"
   id="glyph312" />
<glyph
   unicode="Ù"
   horiz-adv-x="690"
   d="M227,844l0,97l221,-122l0,-84M74,254l0,441l114,0l0,-441C188,201 202,162 230,135C257,108 296,95 346,95C395,95 434,108 462,135C489,162 503,201 503,254l0,441l114,0l0,-441C617,170 591,106 539,61C486,16 421,-7 344,-7C266,-7 202,15 151,60C100,105 74,169 74,254z"
   id="glyph314" />
<glyph
   unicode="Ú"
   horiz-adv-x="690"
   d="M74,254l0,441l114,0l0,-441C188,201 202,162 230,135C257,108 296,95 346,95C395,95 434,108 462,135C489,162 503,201 503,254l0,441l114,0l0,-441C617,170 591,106 539,61C486,16 421,-7 344,-7C266,-7 202,15 151,60C100,105 74,169 74,254M227,819l221,122l0,-97l-221,-109z"
   id="glyph316" />
<glyph
   unicode="Û"
   horiz-adv-x="690"
   d="M74,254l0,441l114,0l0,-441C188,201 202,162 230,135C257,108 296,95 346,95C395,95 434,108 462,135C489,162 503,201 503,254l0,441l114,0l0,-441C617,170 591,106 539,61C486,16 421,-7 344,-7C266,-7 202,15 151,60C100,105 74,169 74,254M488,830l0,-89l-143,86l-143,-86l0,89l143,83z"
   id="glyph318" />
<glyph
   unicode="Ü"
   horiz-adv-x="690"
   d="M74,254l0,441l114,0l0,-441C188,201 202,162 230,135C257,108 296,95 346,95C395,95 434,108 462,135C489,162 503,201 503,254l0,441l114,0l0,-441C617,170 591,106 539,61C486,16 421,-7 344,-7C266,-7 202,15 151,60C100,105 74,169 74,254M474,783C462,771 448,765 431,765C414,765 400,771 389,783C377,794 371,808 371,825C371,842 377,856 389,868C400,879 414,885 431,885C448,885 462,879 474,868C485,856 491,842 491,825C491,808 485,794 474,783M302,783C290,771 276,765 259,765C242,765 228,771 217,783C205,794 199,808 199,825C199,842 205,856 217,868C228,879 242,885 259,885C276,885 290,879 302,868C313,856 319,842 319,825C319,808 313,794 302,783z"
   id="glyph320" />
<glyph
   unicode="Ý"
   horiz-adv-x="605"
   d="M360,0l-114,0l0,252l-231,443l127,0l160,-339l160,339l128,0l-230,-443M406,941l0,-97l-221,-109l0,84z"
   id="glyph322" />
<glyph
   unicode="Þ"
   horiz-adv-x="595"
   d="M315,142l-126,0l0,-142l-114,0l0,696l113,0l0,-141l127,0C394,555 454,536 497,497C540,458 561,409 561,351C561,292 541,243 501,203C460,162 398,142 315,142M189,231l126,0C358,231 391,241 412,262C433,283 444,311 444,348C444,385 433,414 412,435C391,456 358,466 315,466l-126,0z"
   id="glyph324" />
<glyph
   unicode="ß"
   horiz-adv-x="682"
   d="M655,184C655,127 635,80 595,45C554,9 507,-9 453,-9C398,-9 352,7 315,40C277,73 258,117 258,172l96,0C357,147 366,127 382,113C398,98 420,91 448,91C475,91 497,100 514,119C530,137 538,158 538,181C538,204 532,224 520,241C508,258 488,274 461,291l-156,96l0,54l29,16C372,478 391,509 391,552C391,580 382,604 363,623C344,642 321,651 292,651C263,651 238,641 219,622C199,602 189,576 189,543l0,-543l-114,0l0,541C75,605 95,656 136,694C177,731 231,750 298,750C365,750 416,733 453,699C490,664 508,623 508,576C508,521 479,477 422,445l99,-60C569,356 603,326 624,296C645,265 655,228 655,184z"
   id="glyph326" />
<glyph
   unicode="à"
   horiz-adv-x="678"
   d="M221,699l0,97l221,-122l0,-84M439,141C472,174 488,219 488,276C488,333 472,378 439,411C406,444 366,461 321,461C276,461 237,445 204,412C171,379 154,335 154,278C154,221 171,176 204,142C237,107 276,90 321,90C366,90 406,107 439,141M297,560C340,560 379,550 412,531C445,511 470,485 488,453l0,98l115,0l0,-551l-115,0l0,103C469,69 444,42 411,22C378,1 340,-9 297,-9C224,-9 162,18 112,72C62,125 37,194 37,278C37,361 62,429 112,482C161,534 223,560 297,560z"
   id="glyph328" />
<glyph
   unicode="á"
   horiz-adv-x="678"
   d="M221,674l221,122l0,-97l-221,-109M439,141C472,174 488,219 488,276C488,333 472,378 439,411C406,444 366,461 321,461C276,461 237,445 204,412C171,379 154,335 154,278C154,221 171,176 204,142C237,107 276,90 321,90C366,90 406,107 439,141M297,560C340,560 379,550 412,531C445,511 470,485 488,453l0,98l115,0l0,-551l-115,0l0,103C469,69 444,42 411,22C378,1 340,-9 297,-9C224,-9 162,18 112,72C62,125 37,194 37,278C37,361 62,429 112,482C161,534 223,560 297,560z"
   id="glyph330" />
<glyph
   unicode="â"
   horiz-adv-x="678"
   d="M482,685l0,-89l-143,86l-143,-86l0,89l143,83M439,141C472,174 488,219 488,276C488,333 472,378 439,411C406,444 366,461 321,461C276,461 237,445 204,412C171,379 154,335 154,278C154,221 171,176 204,142C237,107 276,90 321,90C366,90 406,107 439,141M297,560C340,560 379,550 412,531C445,511 470,485 488,453l0,98l115,0l0,-551l-115,0l0,103C469,69 444,42 411,22C378,1 340,-9 297,-9C224,-9 162,18 112,72C62,125 37,194 37,278C37,361 62,429 112,482C161,534 223,560 297,560z"
   id="glyph332" />
<glyph
   unicode="ã"
   horiz-adv-x="678"
   d="M405,681C430,681 444,695 448,723l64,0C507,684 494,655 474,636C454,616 432,606 407,606C382,606 359,614 336,629C313,644 295,651 283,651C258,651 244,637 240,608l-64,0C181,647 194,676 214,696C234,715 256,725 281,725C306,725 330,718 353,703C376,688 393,681 405,681M439,141C472,174 488,219 488,276C488,333 472,378 439,411C406,444 366,461 321,461C276,461 237,445 204,412C171,379 154,335 154,278C154,221 171,176 204,142C237,107 276,90 321,90C366,90 406,107 439,141M297,560C340,560 379,550 412,531C445,511 470,485 488,453l0,98l115,0l0,-551l-115,0l0,103C469,69 444,42 411,22C378,1 340,-9 297,-9C224,-9 162,18 112,72C62,125 37,194 37,278C37,361 62,429 112,482C161,534 223,560 297,560z"
   id="glyph334" />
<glyph
   unicode="ä"
   horiz-adv-x="678"
   d="M468,638C456,626 442,620 425,620C408,620 394,626 383,637C371,648 365,663 365,680C365,697 371,711 383,723C394,734 408,740 425,740C442,740 456,734 468,723C479,711 485,697 485,680C485,663 479,649 468,638M296,638C284,626 270,620 253,620C236,620 222,626 211,637C199,648 193,663 193,680C193,697 199,711 211,723C222,734 236,740 253,740C270,740 284,734 296,723C307,711 313,697 313,680C313,663 307,649 296,638M439,141C472,174 488,219 488,276C488,333 472,378 439,411C406,444 366,461 321,461C276,461 237,445 204,412C171,379 154,335 154,278C154,221 171,176 204,142C237,107 276,90 321,90C366,90 406,107 439,141M297,560C340,560 379,550 412,531C445,511 470,485 488,453l0,98l115,0l0,-551l-115,0l0,103C469,69 444,42 411,22C378,1 340,-9 297,-9C224,-9 162,18 112,72C62,125 37,194 37,278C37,361 62,429 112,482C161,534 223,560 297,560z"
   id="glyph336" />
<glyph
   unicode="å"
   horiz-adv-x="678"
   d="M340,664C354,664 366,669 376,679C386,688 391,701 391,716C391,731 386,743 376,752C366,761 354,766 339,766C324,766 312,761 303,752C293,743 288,731 288,716C288,701 293,688 303,679C313,669 325,664 340,664M340,605C309,605 283,615 262,635C241,655 230,682 230,715C230,748 241,774 262,794C283,814 309,824 340,824C371,824 396,814 417,794C438,774 448,748 448,715C448,682 438,655 417,635C396,615 371,605 340,605M439,141C472,174 488,219 488,276C488,333 472,378 439,411C406,444 366,461 321,461C276,461 237,445 204,412C171,379 154,335 154,278C154,221 171,176 204,142C237,107 276,90 321,90C366,90 406,107 439,141M297,560C340,560 379,550 412,531C445,511 470,485 488,453l0,98l115,0l0,-551l-115,0l0,103C469,69 444,42 411,22C378,1 340,-9 297,-9C224,-9 162,18 112,72C62,125 37,194 37,278C37,361 62,429 112,482C161,534 223,560 297,560z"
   id="glyph338" />
<glyph
   unicode="æ"
   horiz-adv-x="1088"
   d="M601,551l0,-84C647,529 709,560 788,560C867,560 930,535 979,485C1027,434 1051,370 1051,291C1051,272 1050,254 1047,237l-431,0C622,190 641,153 672,127C703,100 738,87 777,87C843,87 887,113 909,164l124,0C1016,113 987,72 945,40C903,7 852,-9 792,-9C752,-9 715,0 681,18C646,36 620,60 601,90l0,-90l-114,0l0,90C442,24 381,-9 304,-9C226,-9 162,18 112,72C62,125 37,194 37,278C37,362 62,430 113,482C163,534 228,560 307,560C386,560 446,529 487,467l0,84M204,142C237,107 276,90 321,90C366,90 406,107 439,141C472,174 488,219 488,276C488,333 472,378 439,411C406,444 366,461 321,461C276,461 237,445 204,412C171,379 154,335 154,278C154,221 171,176 204,142M616,315l317,0C932,360 918,397 889,424C860,451 825,464 782,464C739,464 702,450 671,423C640,395 621,359 616,315z"
   id="glyph340" />
<glyph
   unicode="ç"
   horiz-adv-x="600"
   d="M307,464C260,464 223,448 196,415C168,382 154,335 154,276C154,217 168,170 196,137C223,104 260,87 307,87C373,87 417,116 438,174l123,0C546,123 520,82 483,50C445,17 398,-2 341,-7l0,-41C380,-48 411,-57 435,-75C459,-94 471,-120 471,-153C471,-186 459,-213 435,-232C411,-252 381,-262 344,-262l-132,0l0,72l109,0C340,-190 354,-187 363,-182C372,-177 377,-167 377,-153C377,-139 372,-129 363,-124C354,-119 340,-116 321,-116l-55,0l0,110C197,3 142,32 100,83C58,134 37,200 37,282C37,363 62,430 113,482C163,534 228,560 307,560C374,560 429,544 473,513C516,481 546,436 561,377l-123,0C417,435 374,464 307,464z"
   id="glyph342" />
<glyph
   unicode="è"
   horiz-adv-x="617"
   d="M307,-9C227,-9 162,17 112,69C62,121 37,190 37,276C37,362 62,431 113,483C164,534 229,560 310,560C390,560 455,535 505,486C555,436 580,371 580,291C580,272 579,254 576,237l-422,0C157,191 172,155 201,128C229,101 264,87 307,87C369,87 413,113 438,164l123,0C544,113 514,72 470,40C426,7 372,-9 307,-9M155,315l306,0C460,360 445,397 416,424C387,451 351,464 309,464C267,464 232,451 204,424C175,397 159,360 155,315M411,674l0,-84l-221,109l0,97z"
   id="glyph344" />
<glyph
   unicode="é"
   horiz-adv-x="617"
   d="M307,-9C227,-9 162,17 112,69C62,121 37,190 37,276C37,362 62,431 113,483C164,534 229,560 310,560C390,560 455,535 505,486C555,436 580,371 580,291C580,272 579,254 576,237l-422,0C157,191 172,155 201,128C229,101 264,87 307,87C369,87 413,113 438,164l123,0C544,113 514,72 470,40C426,7 372,-9 307,-9M155,315l306,0C460,360 445,397 416,424C387,451 351,464 309,464C267,464 232,451 204,424C175,397 159,360 155,315M411,796l0,-97l-221,-109l0,84z"
   id="glyph346" />
<glyph
   unicode="ê"
   horiz-adv-x="617"
   d="M307,-9C227,-9 162,17 112,69C62,121 37,190 37,276C37,362 62,431 113,483C164,534 229,560 310,560C390,560 455,535 505,486C555,436 580,371 580,291C580,272 579,254 576,237l-422,0C157,191 172,155 201,128C229,101 264,87 307,87C369,87 413,113 438,164l123,0C544,113 514,72 470,40C426,7 372,-9 307,-9M155,315l306,0C460,360 445,397 416,424C387,451 351,464 309,464C267,464 232,451 204,424C175,397 159,360 155,315M451,596l-143,86l-143,-86l0,89l143,83l143,-83z"
   id="glyph348" />
<glyph
   unicode="ë"
   horiz-adv-x="617"
   d="M307,-9C227,-9 162,17 112,69C62,121 37,190 37,276C37,362 62,431 113,483C164,534 229,560 310,560C390,560 455,535 505,486C555,436 580,371 580,291C580,272 579,254 576,237l-422,0C157,191 172,155 201,128C229,101 264,87 307,87C369,87 413,113 438,164l123,0C544,113 514,72 470,40C426,7 372,-9 307,-9M155,315l306,0C460,360 445,397 416,424C387,451 351,464 309,464C267,464 232,451 204,424C175,397 159,360 155,315M266,638C254,626 240,620 223,620C206,620 192,626 181,637C169,648 163,663 163,680C163,697 169,711 181,723C192,734 206,740 223,740C240,740 254,734 266,723C277,711 283,697 283,680C283,663 277,649 266,638M438,638C426,626 412,620 395,620C378,620 364,626 353,637C341,648 335,663 335,680C335,697 341,711 353,723C364,734 378,740 395,740C412,740 426,734 438,723C449,711 455,697 455,680C455,663 449,649 438,638z"
   id="glyph350" />
<glyph
   unicode="ì"
   horiz-adv-x="264"
   d="M14,699l0,97l221,-122l0,-84M75,0l0,551l114,0l0,-551z"
   id="glyph352" />
<glyph
   unicode="í"
   horiz-adv-x="264"
   d="M75,0l0,551l114,0l0,-551M14,674l221,122l0,-97l-221,-109z"
   id="glyph354" />
<glyph
   unicode="î"
   horiz-adv-x="264"
   d="M75,0l0,551l114,0l0,-551M275,685l0,-89l-143,86l-143,-86l0,89l143,83z"
   id="glyph356" />
<glyph
   unicode="ï"
   horiz-adv-x="264"
   d="M75,0l0,551l114,0l0,-551M278,680C278,663 272,649 261,638C249,626 235,620 218,620C201,620 186,626 175,637C164,648 158,663 158,680C158,697 164,711 176,723C187,734 201,740 218,740C235,740 249,734 261,723C272,711 278,697 278,680M106,680C106,663 100,649 89,638C77,626 63,620 46,620C29,620 14,626 3,637C-8,648 -14,663 -14,680C-14,697 -8,711 4,723C15,734 29,740 46,740C63,740 77,734 89,723C100,711 106,697 106,680z"
   id="glyph358" />
<glyph
   unicode="ð"
   horiz-adv-x="636"
   d="M599,317C599,212 573,132 520,76C467,19 400,-9 318,-9C235,-9 168,17 116,70C63,122 37,191 37,276C37,361 63,429 116,482C168,534 234,560 313,560C369,560 420,541 466,503C447,546 421,588 387,628l-123,-40l0,61l79,26C320,696 296,718 269,740l116,0C399,728 413,715 426,702l125,41l0,-61l-81,-27C556,554 599,441 599,317M154,276C154,216 169,170 200,137C231,104 269,87 315,87C360,87 400,104 433,137C466,170 482,217 482,276C482,335 466,382 434,415C401,448 362,464 317,464C271,464 232,448 201,415C170,382 154,335 154,276z"
   id="glyph360" />
<glyph
   unicode="ñ"
   horiz-adv-x="649"
   d="M189,551l0,-87C226,528 284,560 365,560C427,560 478,539 519,498C559,457 579,399 579,325l0,-325l-113,0l0,308C466,357 454,395 429,422C404,448 371,461 328,461C285,461 252,448 227,422C202,395 189,357 189,308l0,-308l-114,0l0,551M279,651C254,651 240,637 236,608l-64,0C177,647 190,676 210,696C230,715 252,725 277,725C302,725 326,718 349,703C372,688 389,681 401,681C426,681 440,695 444,723l64,0C503,684 490,655 470,636C450,616 428,606 403,606C378,606 355,614 332,629C309,644 291,651 279,651z"
   id="glyph362" />
<glyph
   unicode="ò"
   horiz-adv-x="638"
   d="M201,699l0,97l221,-122l0,-84M433,137C466,170 483,217 483,276C483,335 467,382 435,415C402,448 363,464 317,464C271,464 232,448 201,415C170,382 154,335 154,276C154,216 169,170 200,137C231,104 269,87 315,87C360,87 400,104 433,137M315,-9C234,-9 168,17 116,70C64,122 38,191 38,276C38,361 65,429 119,482C172,534 239,560 319,560C399,560 466,534 520,482C573,429 600,361 600,276C600,191 573,123 518,70C463,17 395,-9 315,-9z"
   id="glyph364" />
<glyph
   unicode="ó"
   horiz-adv-x="638"
   d="M433,137C466,170 483,217 483,276C483,335 467,382 435,415C402,448 363,464 317,464C271,464 232,448 201,415C170,382 154,335 154,276C154,216 169,170 200,137C231,104 269,87 315,87C360,87 400,104 433,137M315,-9C234,-9 168,17 116,70C64,122 38,191 38,276C38,361 65,429 119,482C172,534 239,560 319,560C399,560 466,534 520,482C573,429 600,361 600,276C600,191 573,123 518,70C463,17 395,-9 315,-9M201,674l221,122l0,-97l-221,-109z"
   id="glyph366" />
<glyph
   unicode="ô"
   horiz-adv-x="638"
   d="M433,137C466,170 483,217 483,276C483,335 467,382 435,415C402,448 363,464 317,464C271,464 232,448 201,415C170,382 154,335 154,276C154,216 169,170 200,137C231,104 269,87 315,87C360,87 400,104 433,137M315,-9C234,-9 168,17 116,70C64,122 38,191 38,276C38,361 65,429 119,482C172,534 239,560 319,560C399,560 466,534 520,482C573,429 600,361 600,276C600,191 573,123 518,70C463,17 395,-9 315,-9M462,685l0,-89l-143,86l-143,-86l0,89l143,83z"
   id="glyph368" />
<glyph
   unicode="õ"
   horiz-adv-x="638"
   d="M385,681C410,681 424,695 428,723l64,0C487,684 474,655 454,636C434,616 412,606 387,606C362,606 339,614 316,629C293,644 275,651 263,651C238,651 224,637 220,608l-64,0C161,647 174,676 194,696C214,715 236,725 261,725C286,725 310,718 333,703C356,688 373,681 385,681M433,137C466,170 483,217 483,276C483,335 467,382 435,415C402,448 363,464 317,464C271,464 232,448 201,415C170,382 154,335 154,276C154,216 169,170 200,137C231,104 269,87 315,87C360,87 400,104 433,137M315,-9C234,-9 168,17 116,70C64,122 38,191 38,276C38,361 65,429 119,482C172,534 239,560 319,560C399,560 466,534 520,482C573,429 600,361 600,276C600,191 573,123 518,70C463,17 395,-9 315,-9z"
   id="glyph370" />
<glyph
   unicode="ö"
   horiz-adv-x="638"
   d="M433,137C466,170 483,217 483,276C483,335 467,382 435,415C402,448 363,464 317,464C271,464 232,448 201,415C170,382 154,335 154,276C154,216 169,170 200,137C231,104 269,87 315,87C360,87 400,104 433,137M315,-9C234,-9 168,17 116,70C64,122 38,191 38,276C38,361 65,429 119,482C172,534 239,560 319,560C399,560 466,534 520,482C573,429 600,361 600,276C600,191 573,123 518,70C463,17 395,-9 315,-9M448,638C436,626 422,620 405,620C388,620 374,626 363,637C351,648 345,663 345,680C345,697 351,711 363,723C374,734 388,740 405,740C422,740 436,734 448,723C459,711 465,697 465,680C465,663 459,649 448,638M276,638C264,626 250,620 233,620C216,620 202,626 191,637C179,648 173,663 173,680C173,697 179,711 191,723C202,734 216,740 233,740C250,740 264,734 276,723C287,711 293,697 293,680C293,663 287,649 276,638z"
   id="glyph372" />
<glyph
   unicode="÷"
   horiz-adv-x="679"
   d="M90,311l0,101l510,0l0,-101M394,526C381,512 364,505 345,505C326,505 309,512 296,526C283,539 276,555 276,574C276,593 283,609 296,623C309,636 326,643 345,643C364,643 381,636 394,623C407,609 414,593 414,574C414,555 407,539 394,526M394,100C381,87 364,80 345,80C326,80 309,87 296,100C283,113 276,130 276,149C276,168 283,184 296,197C309,210 326,217 345,217C364,217 381,210 394,197C407,184 414,168 414,149C414,130 407,113 394,100z"
   id="glyph374" />
<glyph
   unicode="ø"
   horiz-adv-x="638"
   d="M533,467C578,416 600,350 600,270C600,189 573,123 518,70C463,17 395,-9 314,-9C250,-9 194,8 147,43l-40,-43l-79,0l76,83C60,134 38,201 38,282C38,363 65,429 119,482C172,534 239,560 319,560C384,560 441,542 490,507l41,44l79,0M419,428C390,452 354,464 312,464C269,464 232,448 201,415C170,382 154,335 154,276C154,233 162,196 179,166M217,120C244,98 279,87 321,87C362,87 400,104 433,137C466,170 483,217 483,276C483,317 474,353 457,383z"
   id="glyph376" />
<glyph
   unicode="ù"
   horiz-adv-x="649"
   d="M460,551l114,0l0,-551l-114,0l0,87C424,24 365,-8 284,-8C222,-8 171,13 131,54C90,95 70,152 70,226l0,325l113,0l0,-308C183,194 195,156 220,130C245,103 278,90 321,90C364,90 398,103 423,130C448,156 460,194 460,243M428,674l0,-84l-221,109l0,97z"
   id="glyph378" />
<glyph
   unicode="ú"
   horiz-adv-x="649"
   d="M460,551l114,0l0,-551l-114,0l0,87C424,24 365,-8 284,-8C222,-8 171,13 131,54C90,95 70,152 70,226l0,325l113,0l0,-308C183,194 195,156 220,130C245,103 278,90 321,90C364,90 398,103 423,130C448,156 460,194 460,243M428,796l0,-97l-221,-109l0,84z"
   id="glyph380" />
<glyph
   unicode="û"
   horiz-adv-x="649"
   d="M460,551l114,0l0,-551l-114,0l0,87C424,24 365,-8 284,-8C222,-8 171,13 131,54C90,95 70,152 70,226l0,325l113,0l0,-308C183,194 195,156 220,130C245,103 278,90 321,90C364,90 398,103 423,130C448,156 460,194 460,243M468,596l-143,86l-143,-86l0,89l143,83l143,-83z"
   id="glyph382" />
<glyph
   unicode="ü"
   horiz-adv-x="649"
   d="M460,551l114,0l0,-551l-114,0l0,87C424,24 365,-8 284,-8C222,-8 171,13 131,54C90,95 70,152 70,226l0,325l113,0l0,-308C183,194 195,156 220,130C245,103 278,90 321,90C364,90 398,103 423,130C448,156 460,194 460,243M282,638C270,626 256,620 239,620C222,620 208,626 197,637C185,648 179,663 179,680C179,697 185,711 197,723C208,734 222,740 239,740C256,740 270,734 282,723C293,711 299,697 299,680C299,663 293,649 282,638M454,638C442,626 428,620 411,620C394,620 380,626 369,637C357,648 351,663 351,680C351,697 357,711 369,723C380,734 394,740 411,740C428,740 442,734 454,723C465,711 471,697 471,680C471,663 465,649 454,638z"
   id="glyph384" />
<glyph
   unicode="ý"
   horiz-adv-x="582"
   d="M173,674l221,122l0,-97l-221,-109M227,9l-217,542l127,0l155,-420l161,420l118,0l-338,-810l-118,0z"
   id="glyph386" />
<glyph
   unicode="þ"
   horiz-adv-x="678"
   d="M474,142C507,176 524,221 524,278C524,335 508,379 475,412C442,445 402,461 357,461C311,461 272,444 239,411C206,378 189,333 189,276C189,219 206,174 239,141C272,107 311,90 356,90C401,90 441,107 474,142M381,560C455,560 517,534 566,482C615,429 640,361 640,278C640,194 615,125 566,72C516,18 454,-9 381,-9C338,-9 300,1 267,22C234,42 208,69 189,103l0,-365l-114,0l0,1002l114,0l0,-287C208,485 234,511 267,531C300,550 338,560 381,560z"
   id="glyph388" />
<glyph
   unicode="ÿ"
   horiz-adv-x="582"
   d="M420,638C408,626 394,620 377,620C360,620 346,626 335,637C323,648 317,663 317,680C317,697 323,711 335,723C346,734 360,740 377,740C394,740 408,734 420,723C431,711 437,697 437,680C437,663 431,649 420,638M248,638C236,626 222,620 205,620C188,620 174,626 163,637C151,648 145,663 145,680C145,697 151,711 163,723C174,734 188,740 205,740C222,740 236,734 248,723C259,711 265,697 265,680C265,663 259,649 248,638M227,9l-217,542l127,0l155,-420l161,420l118,0l-338,-810l-118,0z"
   id="glyph390" />
<glyph
   unicode="Ā"
   horiz-adv-x="697"
   d="M544,0l-50,142l-291,0l-50,-142l-119,0l249,696l132,0l249,-696M234,231l229,0l-114,327M532,865l0,-85l-366,0l0,85z"
   id="glyph392" />
<glyph
   unicode="ā"
   horiz-adv-x="678"
   d="M156,635l0,85l366,0l0,-85M439,141C472,174 488,219 488,276C488,333 472,378 439,411C406,444 366,461 321,461C276,461 237,445 204,412C171,379 154,335 154,278C154,221 171,176 204,142C237,107 276,90 321,90C366,90 406,107 439,141M297,560C340,560 379,550 412,531C445,511 470,485 488,453l0,98l115,0l0,-551l-115,0l0,103C469,69 444,42 411,22C378,1 340,-9 297,-9C224,-9 162,18 112,72C62,125 37,194 37,278C37,361 62,429 112,482C161,534 223,560 297,560z"
   id="glyph394" />
<glyph
   unicode="Ă"
   horiz-adv-x="697"
   d="M544,0l-50,142l-291,0l-50,-142l-119,0l249,696l132,0l249,-696M234,231l229,0l-114,327M500,914l0,-22C500,850 487,816 460,791C433,766 396,753 349,753C302,753 266,766 239,792C212,817 199,851 199,893l0,21l65,0C264,890 270,872 283,860C296,848 318,842 349,842C380,842 402,848 415,860C428,872 434,890 434,914z"
   id="glyph396" />
<glyph
   unicode="ă"
   horiz-adv-x="678"
   d="M490,747C490,705 477,671 450,646C423,621 386,608 339,608C292,608 256,621 229,647C202,672 189,706 189,748l0,21l65,0C254,745 260,727 273,715C286,703 308,697 339,697C370,697 392,703 405,715C418,727 424,745 424,769l66,0M439,141C472,174 488,219 488,276C488,333 472,378 439,411C406,444 366,461 321,461C276,461 237,445 204,412C171,379 154,335 154,278C154,221 171,176 204,142C237,107 276,90 321,90C366,90 406,107 439,141M297,560C340,560 379,550 412,531C445,511 470,485 488,453l0,98l115,0l0,-551l-115,0l0,103C469,69 444,42 411,22C378,1 340,-9 297,-9C224,-9 162,18 112,72C62,125 37,194 37,278C37,361 62,429 112,482C161,534 223,560 297,560z"
   id="glyph398" />
<glyph
   unicode="Ą"
   horiz-adv-x="697"
   d="M614,-133l84,0l0,-72l-106,0C555,-205 525,-195 501,-175C476,-156 464,-131 464,-102C464,-47 491,-14 545,-1l-50,143l-292,0l-50,-142l-119,0l249,696l132,0l249,-695l0,-61l-50,0C595,-60 581,-62 572,-67C563,-72 558,-82 558,-96C558,-110 563,-120 572,-125C581,-130 595,-133 614,-133M234,231l230,0l-115,327z"
   id="glyph400" />
<glyph
   unicode="ą"
   horiz-adv-x="678"
   d="M553,-133l84,0l0,-72l-106,0C494,-205 464,-195 440,-175C415,-156 403,-131 403,-101C403,-72 411,-48 426,-31C441,-14 462,-2 488,4l0,99C469,69 444,42 411,22C378,1 340,-9 297,-9C224,-9 162,18 112,72C62,125 37,194 37,278C37,361 62,429 112,482C161,534 223,560 297,560C340,560 379,550 412,531C445,511 470,485 488,453l0,98l115,0l0,-551l-1,0l0,-60l-49,0C534,-60 520,-62 511,-67C502,-72 497,-82 497,-96C497,-110 502,-120 511,-125C520,-130 534,-133 553,-133M204,142C237,107 276,90 321,90C366,90 406,107 439,141C472,174 488,219 488,276C488,333 472,378 439,411C406,444 366,461 321,461C276,461 237,445 204,412C171,379 154,335 154,278C154,221 171,176 204,142z"
   id="glyph402" />
<glyph
   unicode="Ć"
   horiz-adv-x="773"
   d="M392,704C466,704 532,686 590,650C647,613 689,562 715,495l-137,0C541,565 479,600 392,600C322,600 265,577 221,531C176,485 154,424 154,349C154,273 176,212 221,166C265,120 322,97 392,97C479,97 541,132 578,202l137,0C689,135 647,84 590,48C532,12 466,-6 392,-6C293,-6 209,27 140,94C71,161 37,246 37,349C37,452 71,537 140,604C209,671 293,704 392,704M268,819l221,122l0,-97l-221,-109z"
   id="glyph404" />
<glyph
   unicode="ć"
   horiz-adv-x="600"
   d="M307,560C374,560 429,544 473,513C516,481 546,436 561,377l-123,0C417,435 374,464 307,464C260,464 223,448 196,415C168,382 154,335 154,276C154,217 168,170 196,137C223,104 260,87 307,87C373,87 417,116 438,174l123,0C545,118 515,74 471,41C427,8 372,-9 307,-9C227,-9 162,17 112,69C62,121 37,190 37,276C37,361 62,430 113,482C163,534 228,560 307,560M182,674l221,122l0,-97l-221,-109z"
   id="glyph406" />
<glyph
   unicode="Č"
   horiz-adv-x="773"
   d="M392,704C466,704 532,686 590,650C647,613 689,562 715,495l-137,0C541,565 479,600 392,600C322,600 265,577 221,531C176,485 154,424 154,349C154,273 176,212 221,166C265,120 322,97 392,97C479,97 541,132 578,202l137,0C689,135 647,84 590,48C532,12 466,-6 392,-6C293,-6 209,27 140,94C71,161 37,246 37,349C37,452 71,537 140,604C209,671 293,704 392,704M386,827l143,86l0,-89l-143,-83l-143,83l0,89z"
   id="glyph408" />
<glyph
   unicode="č"
   horiz-adv-x="600"
   d="M307,560C374,560 429,544 473,513C516,481 546,436 561,377l-123,0C417,435 374,464 307,464C260,464 223,448 196,415C168,382 154,335 154,276C154,217 168,170 196,137C223,104 260,87 307,87C373,87 417,116 438,174l123,0C545,118 515,74 471,41C427,8 372,-9 307,-9C227,-9 162,17 112,69C62,121 37,190 37,276C37,361 62,430 113,482C163,534 228,560 307,560M300,682l143,86l0,-89l-143,-83l-143,83l0,89z"
   id="glyph410" />
<glyph
   unicode="Ď"
   horiz-adv-x="709"
   d="M189,87l113,0C383,87 445,110 489,156C532,202 554,265 554,346C554,426 532,489 489,535C445,580 383,603 302,603l-113,0M302,695C414,695 504,664 571,601C638,538 671,453 671,346C671,239 638,154 571,93C504,31 414,0 302,0l-227,0l0,695M355,827l143,86l0,-89l-143,-83l-143,83l0,89z"
   id="glyph412" />
<glyph
   unicode="ď"
   horiz-adv-x="781"
   d="M439,141C472,174 488,219 488,276C488,333 472,378 439,411C406,444 366,461 321,461C276,461 237,445 204,412C171,379 154,335 154,278C154,221 171,176 204,142C237,107 276,90 321,90C366,90 406,107 439,141M297,560C340,560 379,550 412,531C445,511 470,485 488,453l0,287l115,0l0,-740l-115,0l0,103C469,69 444,42 411,22C378,1 340,-9 297,-9C224,-9 162,18 112,72C62,125 37,194 37,278C37,361 62,429 112,482C161,534 223,560 297,560M654,740l103,0C766,705 770,672 770,641C770,558 733,516 658,516l0,50C690,566 706,585 706,623l0,21l-52,0z"
   id="glyph414" />
<glyph
   unicode="Đ"
   horiz-adv-x="720"
   d="M86,695l228,0C426,695 515,664 582,601C649,538 682,453 682,346C682,239 649,154 582,93C515,31 426,0 314,0l-228,0l0,293l-77,0l0,105l77,0M201,87l113,0C395,87 457,110 500,156C543,202 565,265 565,346C565,426 543,489 500,535C457,580 395,603 314,603l-113,0l0,-205l178,0l0,-105l-178,0z"
   id="glyph416" />
<glyph
   unicode="đ"
   horiz-adv-x="678"
   d="M662,656l0,-66l-59,0l0,-590l-115,0l0,103C469,69 444,42 411,22C378,1 340,-9 297,-9C224,-9 162,18 112,72C62,125 37,194 37,278C37,361 62,429 112,482C161,534 223,560 297,560C340,560 379,550 412,531C445,511 470,485 488,453l0,137l-82,0l0,66l82,0l0,84l115,0l0,-84M204,142C237,107 276,90 321,90C366,90 406,107 439,141C472,174 488,219 488,276C488,333 472,378 439,411C406,444 366,461 321,461C276,461 237,445 204,412C171,379 154,335 154,278C154,221 171,176 204,142z"
   id="glyph418" />
<glyph
   unicode="Ē"
   horiz-adv-x="524"
   d="M79,780l0,85l366,0l0,-85M459,696l0,-89l-270,0l0,-211l240,0l0,-88l-240,0l0,-219l270,0l0,-89l-384,0l0,696z"
   id="glyph420" />
<glyph
   unicode="ē"
   horiz-adv-x="617"
   d="M307,-9C227,-9 162,17 112,69C62,121 37,190 37,276C37,362 62,431 113,483C164,534 229,560 310,560C390,560 455,535 505,486C555,436 580,371 580,291C580,272 579,254 576,237l-422,0C157,191 172,155 201,128C229,101 264,87 307,87C369,87 413,113 438,164l123,0C544,113 514,72 470,40C426,7 372,-9 307,-9M155,315l306,0C460,360 445,397 416,424C387,451 351,464 309,464C267,464 232,451 204,424C175,397 159,360 155,315M492,720l0,-85l-366,0l0,85z"
   id="glyph422" />
<glyph
   unicode="Ė"
   horiz-adv-x="524"
   d="M322,825C322,808 316,794 305,783C293,771 279,765 262,765C245,765 230,771 219,783C208,794 202,808 202,825C202,842 208,856 220,868C231,879 245,885 262,885C279,885 293,879 305,868C316,856 322,842 322,825M459,696l0,-89l-270,0l0,-211l240,0l0,-88l-240,0l0,-219l270,0l0,-89l-384,0l0,696z"
   id="glyph424" />
<glyph
   unicode="ė"
   horiz-adv-x="617"
   d="M307,-9C227,-9 162,17 112,69C62,121 37,190 37,276C37,362 62,431 113,483C164,534 229,560 310,560C390,560 455,535 505,486C555,436 580,371 580,291C580,272 579,254 576,237l-422,0C157,191 172,155 201,128C229,101 264,87 307,87C369,87 413,113 438,164l123,0C544,113 514,72 470,40C426,7 372,-9 307,-9M155,315l306,0C460,360 445,397 416,424C387,451 351,464 309,464C267,464 232,451 204,424C175,397 159,360 155,315M352,638C340,626 326,620 309,620C292,620 278,626 267,637C255,648 249,663 249,680C249,697 255,711 267,723C278,734 292,740 309,740C326,740 340,734 352,723C363,711 369,697 369,680C369,663 363,649 352,638z"
   id="glyph426" />
<glyph
   unicode="Ę"
   horiz-adv-x="524"
   d="M409,-133l84,0l0,-72l-106,0C350,-205 320,-195 296,-175C271,-156 259,-129 259,-96C259,-49 283,-17 331,0l-256,0l0,696l384,0l0,-89l-270,0l0,-211l240,0l0,-88l-240,0l0,-219l270,0l0,-89l-1,0l0,-60l-49,0C390,-60 376,-62 367,-67C358,-72 353,-82 353,-96C353,-110 358,-120 367,-125C376,-130 390,-133 409,-133z"
   id="glyph428" />
<glyph
   unicode="ę"
   horiz-adv-x="617"
   d="M512,-139l-106,0C369,-139 339,-129 315,-109C290,-90 278,-63 278,-30C278,-21 279,-14 281,-8C208,-2 150,27 105,78C60,129 37,197 37,280C37,363 62,431 113,483C164,534 229,560 310,560C390,560 455,535 505,486C555,436 580,371 580,291C580,272 579,254 576,237l-422,0C157,191 172,155 201,128C229,101 264,87 307,87C369,87 413,113 438,164l123,0C549,127 530,96 504,69C478,42 448,23 414,10C399,5 389,-1 382,-6C375,-12 372,-21 372,-33C372,-56 391,-67 428,-67l84,0M155,315l306,0C460,360 445,397 416,424C387,451 351,464 309,464C267,464 232,451 204,424C175,397 159,360 155,315z"
   id="glyph430" />
<glyph
   unicode="Ě"
   horiz-adv-x="524"
   d="M459,696l0,-89l-270,0l0,-211l240,0l0,-88l-240,0l0,-219l270,0l0,-89l-384,0l0,696M262,827l143,86l0,-89l-143,-83l-143,83l0,89z"
   id="glyph432" />
<glyph
   unicode="ě"
   horiz-adv-x="617"
   d="M307,-9C227,-9 162,17 112,69C62,121 37,190 37,276C37,362 62,431 113,483C164,534 229,560 310,560C390,560 455,535 505,486C555,436 580,371 580,291C580,272 579,254 576,237l-422,0C157,191 172,155 201,128C229,101 264,87 307,87C369,87 413,113 438,164l123,0C544,113 514,72 470,40C426,7 372,-9 307,-9M155,315l306,0C460,360 445,397 416,424C387,451 351,464 309,464C267,464 232,451 204,424C175,397 159,360 155,315M451,679l-143,-83l-143,83l0,89l143,-86l143,86z"
   id="glyph434" />
<glyph
   unicode="Ğ"
   horiz-adv-x="773"
   d="M537,892C537,850 524,816 497,791C470,766 433,753 386,753C339,753 303,766 276,792C249,817 236,851 236,893l0,21l65,0C301,890 307,872 320,860C333,848 355,842 386,842C417,842 439,848 452,860C465,872 471,890 471,914l66,0M392,704C466,704 532,686 590,650C647,613 689,562 715,495l-137,0C541,565 479,600 392,600C322,600 265,577 221,531C176,485 154,424 154,349C154,273 176,212 221,166C265,120 320,97 386,97C452,97 505,115 544,150C583,185 606,232 614,292l-261,0l0,89l383,0l0,-89C725,209 688,138 624,81C560,23 481,-6 386,-6C291,-6 209,27 140,94C71,161 37,246 37,349C37,452 71,537 140,604C209,671 293,704 392,704z"
   id="glyph436" />
<glyph
   unicode="ğ"
   horiz-adv-x="678"
   d="M490,747C490,705 477,671 450,646C423,621 386,608 339,608C292,608 256,621 229,647C202,672 189,706 189,748l0,21l65,0C254,745 260,727 273,715C286,703 308,697 339,697C370,697 392,703 405,715C418,727 424,745 424,769l66,0M297,560C340,560 379,550 412,531C445,511 470,485 488,453l0,98l115,0l0,-560C603,-86 579,-149 532,-198C484,-247 420,-272 341,-272C262,-272 197,-254 148,-219C99,-184 71,-137 64,-77l113,0C186,-106 204,-129 233,-146C261,-164 296,-173 339,-173C382,-173 417,-159 446,-131C474,-103 488,-62 488,-9l0,112C469,69 444,42 411,22C378,1 340,-9 297,-9C224,-9 162,18 112,72C62,125 37,194 37,278C37,361 62,429 112,482C161,534 223,560 297,560M439,141C472,174 488,219 488,276C488,333 472,378 439,411C406,444 366,461 321,461C276,461 237,445 204,412C171,379 154,335 154,278C154,221 171,176 204,142C237,107 276,90 321,90C366,90 406,107 439,141z"
   id="glyph438" />
<glyph
   unicode="Ģ"
   horiz-adv-x="773"
   d="M392,704C466,704 532,686 590,650C647,613 689,562 715,495l-137,0C541,565 479,600 392,600C322,600 265,577 221,531C176,485 154,424 154,349C154,273 176,212 221,166C265,120 320,97 386,97C452,97 505,115 544,150C583,185 606,232 614,292l-261,0l0,89l383,0l0,-89C725,209 688,138 624,81C560,23 481,-6 386,-6C291,-6 209,27 140,94C71,161 37,246 37,349C37,452 71,537 140,604C209,671 293,704 392,704M332,-46l103,0C444,-81 448,-114 448,-145C448,-228 411,-270 336,-270l0,50C368,-220 384,-201 384,-163l0,21l-52,0z"
   id="glyph440" />
<glyph
   unicode="ģ"
   horiz-adv-x="678"
   d="M297,560C340,560 379,550 412,531C445,511 470,485 488,453l0,98l115,0l0,-560C603,-86 579,-149 532,-198C484,-247 420,-272 341,-272C262,-272 197,-254 148,-219C99,-184 71,-137 64,-77l113,0C186,-106 204,-129 233,-146C261,-164 296,-173 339,-173C382,-173 417,-159 446,-131C474,-103 488,-62 488,-9l0,112C469,69 444,42 411,22C378,1 340,-9 297,-9C224,-9 162,18 112,72C62,125 37,194 37,278C37,361 62,429 112,482C161,534 223,560 297,560M439,141C472,174 488,219 488,276C488,333 472,378 439,411C406,444 366,461 321,461C276,461 237,445 204,412C171,379 154,335 154,278C154,221 171,176 204,142C237,107 276,90 321,90C366,90 406,107 439,141M393,597l-103,0C281,632 277,665 277,696C277,779 314,821 389,821l0,-50C357,771 341,752 341,714l0,-21l52,0z"
   id="glyph442" />
<glyph
   unicode="Ī"
   horiz-adv-x="264"
   d="M-51,780l0,85l366,0l0,-85M75,0l0,695l114,0l0,-695z"
   id="glyph444" />
<glyph
   unicode="ī"
   horiz-adv-x="264"
   d="M-51,635l0,85l366,0l0,-85M75,0l0,551l114,0l0,-551z"
   id="glyph446" />
<glyph
   unicode="Į"
   horiz-adv-x="264"
   d="M140,-132l84,0l0,-72l-106,0C81,-204 51,-194 27,-174C2,-155 -10,-130 -10,-100C-10,-71 -2,-47 13,-30C28,-13 49,-1 75,5l0,690l114,0l0,-754l-49,0C121,-59 107,-61 98,-66C89,-71 84,-81 84,-95C84,-109 89,-119 98,-124C107,-129 121,-132 140,-132z"
   id="glyph448" />
<glyph
   unicode="į"
   horiz-adv-x="264"
   d="M140,-132l84,0l0,-72l-106,0C81,-204 51,-194 27,-174C2,-155 -10,-130 -10,-100C-10,-71 -2,-47 13,-30C28,-13 49,-1 75,5l0,546l114,0l0,-610l-49,0C121,-59 107,-61 98,-66C89,-71 84,-81 84,-95C84,-109 89,-119 98,-124C107,-129 121,-132 140,-132M205,697C205,676 198,659 184,645C170,631 153,624 133,624C112,624 95,631 81,645C67,659 60,676 60,697C60,718 67,735 81,749C95,763 112,770 133,770C153,770 170,763 184,749C198,735 205,718 205,697z"
   id="glyph450" />
<glyph
   unicode="İ"
   horiz-adv-x="264"
   d="M192,825C192,808 186,794 175,783C163,771 149,765 132,765C115,765 100,771 89,783C78,794 72,808 72,825C72,842 78,856 90,868C101,879 115,885 132,885C149,885 163,879 175,868C186,856 192,842 192,825M75,0l0,695l114,0l0,-695z"
   id="glyph452" />
<glyph
   unicode="ı"
   horiz-adv-x="264"
   d="M75,0l0,551l114,0l0,-551z"
   id="glyph454" />
<glyph
   unicode="Ķ"
   horiz-adv-x="633"
   d="M189,0l-114,0l0,695l114,0l0,-317l270,317l149,0l-314,-349l314,-346l-150,0l-269,311M263,-46l103,0C375,-81 379,-114 379,-145C379,-228 342,-270 267,-270l0,50C299,-220 315,-201 315,-163l0,21l-52,0z"
   id="glyph456" />
<glyph
   unicode="ķ"
   horiz-adv-x="554"
   d="M189,0l-114,0l0,740l114,0l0,-430l200,241l158,0l-254,-276l254,-275l-154,0l-204,237M223,-46l103,0C335,-81 339,-114 339,-145C339,-228 302,-270 227,-270l0,50C259,-220 275,-201 275,-163l0,21l-52,0z"
   id="glyph458" />
<glyph
   unicode="Ĺ"
   horiz-adv-x="444"
   d="M75,695l114,0l0,-608l235,0l0,-87l-349,0M104,819l221,122l0,-97l-221,-109z"
   id="glyph460" />
<glyph
   unicode="ĺ"
   horiz-adv-x="264"
   d="M75,0l0,740l114,0l0,-740M14,863l221,122l0,-97l-221,-109z"
   id="glyph462" />
<glyph
   unicode="Ļ"
   horiz-adv-x="444"
   d="M75,695l114,0l0,-608l235,0l0,-87l-349,0M193,-46l103,0C305,-81 309,-114 309,-145C309,-228 272,-270 197,-270l0,50C229,-220 245,-201 245,-163l0,21l-52,0z"
   id="glyph464" />
<glyph
   unicode="ļ"
   horiz-adv-x="264"
   d="M75,0l0,740l114,0l0,-740M78,-46l103,0C190,-81 194,-114 194,-145C194,-228 157,-270 82,-270l0,50C114,-220 130,-201 130,-163l0,21l-52,0z"
   id="glyph466" />
<glyph
   unicode="Ľ"
   horiz-adv-x="463"
   d="M75,695l114,0l0,-608l235,0l0,-87l-349,0M298,695l103,0C410,660 414,627 414,596C414,513 377,471 302,471l0,50C334,521 350,540 350,578l0,21l-52,0z"
   id="glyph468" />
<glyph
   unicode="ľ"
   horiz-adv-x="427"
   d="M75,0l0,740l114,0l0,-740M268,740l103,0C380,705 384,672 384,641C384,558 347,516 272,516l0,50C304,566 320,585 320,623l0,21l-52,0z"
   id="glyph470" />
<glyph
   unicode="Ł"
   horiz-adv-x="444"
   d="M201,87l234,0l0,-87l-349,0l0,288l-77,-25l0,105l77,25l0,302l115,0l0,-264l92,30l0,-106l-92,-30z"
   id="glyph472" />
<glyph
   unicode="ł"
   horiz-adv-x="264"
   d="M189,0l-114,0l0,282l-66,-23l0,106l66,22l0,353l114,0l0,-314l67,23l0,-105l-67,-23z"
   id="glyph474" />
<glyph
   unicode="Ń"
   horiz-adv-x="721"
   d="M532,696l114,0l0,-696l-114,0l-343,519l0,-519l-114,0l0,696l114,0l343,-518M243,819l221,122l0,-97l-221,-109z"
   id="glyph476" />
<glyph
   unicode="ń"
   horiz-adv-x="649"
   d="M189,551l0,-87C226,528 284,560 365,560C427,560 478,539 519,498C559,457 579,399 579,325l0,-325l-113,0l0,308C466,357 454,395 429,422C404,448 371,461 328,461C285,461 252,448 227,422C202,395 189,357 189,308l0,-308l-114,0l0,551M438,796l0,-97l-221,-109l0,84z"
   id="glyph478" />
<glyph
   unicode="Ņ"
   horiz-adv-x="721"
   d="M532,696l114,0l0,-696l-114,0l-343,519l0,-519l-114,0l0,696l114,0l343,-518M307,-46l103,0C419,-81 423,-114 423,-145C423,-228 386,-270 311,-270l0,50C343,-220 359,-201 359,-163l0,21l-52,0z"
   id="glyph480" />
<glyph
   unicode="ņ"
   horiz-adv-x="649"
   d="M189,551l0,-87C226,528 284,560 365,560C427,560 478,539 519,498C559,457 579,399 579,325l0,-325l-113,0l0,308C466,357 454,395 429,422C404,448 371,461 328,461C285,461 252,448 227,422C202,395 189,357 189,308l0,-308l-114,0l0,551M271,-46l103,0C383,-81 387,-114 387,-145C387,-228 350,-270 275,-270l0,50C307,-220 323,-201 323,-163l0,21l-52,0z"
   id="glyph482" />
<glyph
   unicode="Ň"
   horiz-adv-x="721"
   d="M532,696l114,0l0,-696l-114,0l-343,519l0,-519l-114,0l0,696l114,0l343,-518M361,827l143,86l0,-89l-143,-83l-143,83l0,89z"
   id="glyph484" />
<glyph
   unicode="ň"
   horiz-adv-x="649"
   d="M189,551l0,-87C226,528 284,560 365,560C427,560 478,539 519,498C559,457 579,399 579,325l0,-325l-113,0l0,308C466,357 454,395 429,422C404,448 371,461 328,461C285,461 252,448 227,422C202,395 189,357 189,308l0,-308l-114,0l0,551M478,679l-143,-83l-143,83l0,89l143,-86l143,86z"
   id="glyph486" />
<glyph
   unicode="Ō"
   horiz-adv-x="784"
   d="M392,96C462,96 519,119 564,166C608,212 630,273 630,349C630,424 608,485 564,531C519,577 462,600 392,600C322,600 265,577 221,531C176,485 154,424 154,349C154,273 176,212 221,166C265,119 322,96 392,96M393,-7C293,-7 209,27 140,94C71,161 37,246 37,349C37,452 71,537 140,604C209,671 293,704 393,704C492,704 576,671 645,604C713,537 747,452 747,349C747,246 713,161 645,94C576,27 492,-7 393,-7M209,780l0,85l366,0l0,-85z"
   id="glyph488" />
<glyph
   unicode="ō"
   horiz-adv-x="638"
   d="M433,137C466,170 483,217 483,276C483,335 467,382 435,415C402,448 363,464 317,464C271,464 232,448 201,415C170,382 154,335 154,276C154,216 169,170 200,137C231,104 269,87 315,87C360,87 400,104 433,137M315,-9C234,-9 168,17 116,70C64,122 38,191 38,276C38,361 65,429 119,482C172,534 239,560 319,560C399,560 466,534 520,482C573,429 600,361 600,276C600,191 573,123 518,70C463,17 395,-9 315,-9M136,635l0,85l366,0l0,-85z"
   id="glyph490" />
<glyph
   unicode="Ő"
   horiz-adv-x="784"
   d="M392,96C462,96 519,119 564,166C608,212 630,273 630,349C630,424 608,485 564,531C519,577 462,600 392,600C322,600 265,577 221,531C176,485 154,424 154,349C154,273 176,212 221,166C265,119 322,96 392,96M393,-7C293,-7 209,27 140,94C71,161 37,246 37,349C37,452 71,537 140,604C209,671 293,704 393,704C492,704 576,671 645,604C713,537 747,452 747,349C747,246 713,161 645,94C576,27 492,-7 393,-7M333,916l99,0l-94,-170l-74,0M511,916l98,0l-108,-170l-74,0z"
   id="glyph492" />
<glyph
   unicode="ő"
   horiz-adv-x="638"
   d="M433,137C466,170 483,217 483,276C483,335 467,382 435,415C402,448 363,464 317,464C271,464 232,448 201,415C170,382 154,335 154,276C154,216 169,170 200,137C231,104 269,87 315,87C360,87 400,104 433,137M315,-9C234,-9 168,17 116,70C64,122 38,191 38,276C38,361 65,429 119,482C172,534 239,560 319,560C399,560 466,534 520,482C573,429 600,361 600,276C600,191 573,123 518,70C463,17 395,-9 315,-9M260,771l99,0l-94,-170l-74,0M438,771l98,0l-108,-170l-74,0z"
   id="glyph494" />
<glyph
   unicode="Œ"
   horiz-adv-x="1079"
   d="M1014,606l-270,0l0,-211l240,0l0,-88l-240,0l0,-218l270,0l0,-89l-384,0l0,111C572,32 493,-7 393,-7C293,-7 209,27 140,94C71,161 37,246 37,349C37,452 71,537 140,604C209,671 293,704 394,704C494,704 573,664 630,585l0,110l384,0M392,600C322,600 265,577 221,531C176,485 154,424 154,349C154,273 176,212 221,166C265,119 322,96 392,96C462,96 519,119 564,166C608,212 630,273 630,349C630,424 608,485 564,531C519,577 462,600 392,600z"
   id="glyph496" />
<glyph
   unicode="œ"
   horiz-adv-x="1062"
   d="M752,-9C657,-9 586,30 538,107C513,70 481,42 442,22C403,1 360,-9 314,-9C234,-9 168,17 116,70C63,122 37,191 37,276C37,361 64,429 118,482C172,534 239,560 319,560C364,560 406,550 445,530C483,510 514,482 539,446C588,522 660,560 757,560C836,560 900,535 950,486C1000,436 1025,371 1025,291C1025,272 1024,254 1021,237l-421,0C603,191 618,155 646,128C674,101 709,87 752,87C814,87 858,113 883,164l123,0C989,113 959,72 915,40C871,7 817,-9 752,-9M154,276C154,216 169,170 200,137C231,104 269,87 315,87C360,87 400,104 433,137C466,170 482,217 482,276C482,335 466,382 434,415C401,448 362,464 317,464C271,464 232,448 201,415C170,382 154,335 154,276M601,315l305,0C905,360 890,397 861,424C832,451 796,464 754,464C712,464 677,451 649,424C621,397 605,361 601,315z"
   id="glyph498" />
<glyph
   unicode="Ŕ"
   horiz-adv-x="632"
   d="M189,282l0,-282l-114,0l0,695l240,0C394,695 454,676 497,637C540,598 561,548 561,488C561,441 547,399 519,362C490,325 447,300 388,289l184,-289l-139,0l-174,282M189,606l0,-235l126,0C358,371 391,381 412,402C433,423 444,452 444,489C444,526 433,554 412,575C391,596 358,606 315,606M419,941l0,-97l-221,-109l0,84z"
   id="glyph500" />
<glyph
   unicode="ŕ"
   horiz-adv-x="384"
   d="M189,551l0,-96C224,525 279,560 354,560l0,-118l-29,0C280,442 247,431 224,408C201,385 189,346 189,290l0,-290l-114,0l0,551M344,796l0,-97l-221,-109l0,84z"
   id="glyph502" />
<glyph
   unicode="Ŗ"
   horiz-adv-x="632"
   d="M189,282l0,-282l-114,0l0,695l240,0C394,695 454,676 497,637C540,598 561,548 561,488C561,441 547,399 519,362C490,325 447,300 388,289l184,-289l-139,0l-174,282M189,606l0,-235l126,0C358,371 391,381 412,402C433,423 444,452 444,489C444,526 433,554 412,575C391,596 358,606 315,606M262,-46l103,0C374,-81 378,-114 378,-145C378,-228 341,-270 266,-270l0,50C298,-220 314,-201 314,-163l0,21l-52,0z"
   id="glyph504" />
<glyph
   unicode="ŗ"
   horiz-adv-x="384"
   d="M189,551l0,-96C224,525 279,560 354,560l0,-118l-29,0C280,442 247,431 224,408C201,385 189,346 189,290l0,-290l-114,0l0,551M78,-46l103,0C190,-81 194,-114 194,-145C194,-228 157,-270 82,-270l0,50C114,-220 130,-201 130,-163l0,21l-52,0z"
   id="glyph506" />
<glyph
   unicode="Ř"
   horiz-adv-x="632"
   d="M189,282l0,-282l-114,0l0,695l240,0C394,695 454,676 497,637C540,598 561,548 561,488C561,441 547,399 519,362C490,325 447,300 388,289l184,-289l-139,0l-174,282M189,606l0,-235l126,0C358,371 391,381 412,402C433,423 444,452 444,489C444,526 433,554 412,575C391,596 358,606 315,606M459,824l-143,-83l-143,83l0,89l143,-86l143,86z"
   id="glyph508" />
<glyph
   unicode="ř"
   horiz-adv-x="384"
   d="M241,682l143,86l0,-89l-143,-83l-143,83l0,89M189,551l0,-96C224,525 279,560 354,560l0,-118l-29,0C280,442 247,431 224,408C201,385 189,346 189,290l0,-290l-114,0l0,551z"
   id="glyph510" />
<glyph
   unicode="Ś"
   horiz-adv-x="604"
   d="M60,185l122,0C185,154 196,130 216,112C236,94 265,85 304,85C343,85 373,95 396,115C418,135 429,159 429,186C429,213 422,235 409,250C395,265 377,277 356,285C334,292 310,299 284,305C258,311 232,318 206,326C179,334 155,344 134,357C112,370 94,388 81,413C67,437 60,467 60,502C60,563 82,612 126,649C169,686 226,704 296,704C365,704 421,688 463,656C504,624 527,578 532,517l-126,0C403,544 392,566 372,584C352,602 325,611 291,611C257,611 229,602 208,585C187,568 176,543 176,510C176,477 189,451 214,434C239,417 270,404 306,396C342,388 378,379 414,369C450,358 481,339 506,311C531,283 544,243 544,192C544,141 522,95 479,54C436,13 378,-7 305,-7C232,-7 173,10 128,44C83,78 60,125 60,185M184,819l221,122l0,-97l-221,-109z"
   id="glyph512" />
<glyph
   unicode="ś"
   horiz-adv-x="534"
   d="M50,393C50,440 70,479 109,512C148,544 200,560 264,560C328,560 379,544 417,513C454,481 474,438 477,383l-117,0C358,410 349,432 332,447C315,462 291,470 260,470C229,470 205,463 188,450C171,436 162,418 162,396C162,373 173,356 195,343C217,330 244,321 276,315C307,309 339,302 371,293C402,284 429,269 451,246C473,223 484,192 484,153C484,105 464,66 424,36C383,6 331,-9 268,-9C205,-9 153,6 114,37C75,68 53,111 49,168l118,0C169,141 179,119 197,104C215,89 240,81 271,81C302,81 326,88 345,102C363,115 372,133 372,156C372,179 361,196 339,209C317,222 290,231 259,238C227,244 195,251 164,260C132,268 105,283 83,305C61,327 50,356 50,393M149,674l221,122l0,-97l-221,-109z"
   id="glyph514" />
<glyph
   unicode="Ş"
   horiz-adv-x="604"
   d="M344,-5l0,-43C383,-48 414,-57 438,-75C462,-94 474,-120 474,-153C474,-186 462,-213 438,-232C414,-252 384,-262 347,-262l-132,0l0,72l109,0C343,-190 357,-187 366,-182C375,-177 380,-167 380,-153C380,-139 375,-129 366,-124C357,-119 343,-116 324,-116l-55,0l0,110C206,0 156,20 118,53C79,86 60,130 60,185l122,0C185,154 196,130 216,112C236,94 265,85 304,85C343,85 373,95 396,115C418,135 429,159 429,186C429,213 422,235 409,250C395,265 377,277 356,285C334,292 310,299 284,305C258,311 232,318 206,326C179,334 155,344 134,357C112,370 94,388 81,413C67,437 60,467 60,502C60,563 82,612 126,649C169,686 226,704 296,704C365,704 421,688 463,656C504,624 527,578 532,517l-126,0C403,544 392,566 372,584C352,602 325,611 291,611C257,611 229,602 208,585C187,568 176,543 176,510C176,477 189,451 214,434C239,417 270,404 306,396C342,388 378,379 414,369C450,358 481,339 506,311C531,283 544,245 544,197C544,148 526,105 491,66C455,27 406,3 344,-5z"
   id="glyph516" />
<glyph
   unicode="ş"
   horiz-adv-x="534"
   d="M309,-7l0,-41C348,-48 379,-57 403,-75C427,-94 439,-120 439,-153C439,-186 427,-213 403,-232C379,-252 349,-262 312,-262l-132,0l0,72l109,0C308,-190 322,-187 331,-182C340,-177 345,-167 345,-153C345,-139 340,-129 331,-124C322,-119 308,-116 289,-116l-55,0l0,109C179,-2 136,16 103,46C70,76 52,117 49,168l118,0C169,141 179,119 197,104C215,89 240,81 271,81C302,81 326,88 345,102C363,115 372,133 372,156C372,179 361,196 339,209C317,222 290,231 259,238C227,244 195,251 164,260C132,268 105,283 83,305C61,327 50,356 50,393C50,440 70,479 109,512C148,544 200,560 264,560C328,560 379,544 417,513C454,481 474,438 477,383l-117,0C358,410 349,432 332,447C315,462 291,470 260,470C229,470 205,463 188,450C171,436 162,418 162,396C162,373 173,356 195,343C217,330 244,321 276,315C307,309 339,302 371,293C402,284 429,269 451,246C473,223 484,191 484,151C484,110 468,76 436,47C404,18 362,0 309,-7z"
   id="glyph518" />
<glyph
   unicode="Š"
   horiz-adv-x="604"
   d="M60,185l122,0C185,154 196,130 216,112C236,94 265,85 304,85C343,85 373,95 396,115C418,135 429,159 429,186C429,213 422,235 409,250C395,265 377,277 356,285C334,292 310,299 284,305C258,311 232,318 206,326C179,334 155,344 134,357C112,370 94,388 81,413C67,437 60,467 60,502C60,563 82,612 126,649C169,686 226,704 296,704C365,704 421,688 463,656C504,624 527,578 532,517l-126,0C403,544 392,566 372,584C352,602 325,611 291,611C257,611 229,602 208,585C187,568 176,543 176,510C176,477 189,451 214,434C239,417 270,404 306,396C342,388 378,379 414,369C450,358 481,339 506,311C531,283 544,243 544,192C544,141 522,95 479,54C436,13 378,-7 305,-7C232,-7 173,10 128,44C83,78 60,125 60,185M302,827l143,86l0,-89l-143,-83l-143,83l0,89z"
   id="glyph520" />
<glyph
   unicode="š"
   horiz-adv-x="534"
   d="M50,393C50,440 70,479 109,512C148,544 200,560 264,560C328,560 379,544 417,513C454,481 474,438 477,383l-117,0C358,410 349,432 332,447C315,462 291,470 260,470C229,470 205,463 188,450C171,436 162,418 162,396C162,373 173,356 195,343C217,330 244,321 276,315C307,309 339,302 371,293C402,284 429,269 451,246C473,223 484,192 484,153C484,105 464,66 424,36C383,6 331,-9 268,-9C205,-9 153,6 114,37C75,68 53,111 49,168l118,0C169,141 179,119 197,104C215,89 240,81 271,81C302,81 326,88 345,102C363,115 372,133 372,156C372,179 361,196 339,209C317,222 290,231 259,238C227,244 195,251 164,260C132,268 105,283 83,305C61,327 50,356 50,393M267,682l143,86l0,-89l-143,-83l-143,83l0,89z"
   id="glyph522" />
<glyph
   unicode="Ţ"
   horiz-adv-x="564"
   d="M524,606l-185,0l0,-607C375,-3 403,-13 424,-31C445,-50 455,-75 455,-108C455,-141 443,-167 420,-187C397,-207 366,-217 328,-217l-162,0l0,72l144,0C344,-145 361,-132 361,-106C361,-81 344,-68 310,-68l-85,0l0,674l-186,0l0,89l485,0z"
   id="glyph524" />
<glyph
   unicode="ţ"
   horiz-adv-x="372"
   d="M228,-48C267,-48 298,-57 322,-75C346,-94 358,-120 358,-153C358,-186 346,-213 322,-232C298,-252 268,-262 231,-262l-132,0l0,72l109,0C227,-190 241,-187 250,-182C259,-177 264,-167 264,-153C264,-139 259,-129 250,-124C241,-119 227,-116 208,-116l-55,0l0,138C113,46 93,90 93,153l0,305l-65,0l0,93l65,0l0,137l115,0l0,-137l134,0l0,-93l-134,0l0,-305C208,132 213,118 223,109C232,100 249,95 272,95l70,0l0,-95l-90,0C241,0 233,0 228,1z"
   id="glyph526" />
<glyph
   unicode="Ť"
   horiz-adv-x="564"
   d="M39,606l0,89l485,0l0,-89l-185,0l0,-606l-114,0l0,606M282,827l143,86l0,-89l-143,-83l-143,83l0,89z"
   id="glyph528" />
<glyph
   unicode="ť"
   horiz-adv-x="372"
   d="M342,458l-134,0l0,-305C208,132 213,118 223,109C232,100 249,95 272,95l70,0l0,-95l-90,0C146,0 93,51 93,153l0,305l-65,0l0,93l65,0l0,137l115,0l0,-137l134,0M133,-46l103,0C245,-81 249,-114 249,-145C249,-228 212,-270 137,-270l0,50C169,-220 185,-201 185,-163l0,21l-52,0z"
   id="glyph530" />
<glyph
   unicode="Ū"
   horiz-adv-x="690"
   d="M162,780l0,85l366,0l0,-85M74,254l0,441l114,0l0,-441C188,201 202,162 230,135C257,108 296,95 346,95C395,95 434,108 462,135C489,162 503,201 503,254l0,441l114,0l0,-441C617,170 591,106 539,61C486,16 421,-7 344,-7C266,-7 202,15 151,60C100,105 74,169 74,254z"
   id="glyph532" />
<glyph
   unicode="ū"
   horiz-adv-x="649"
   d="M460,551l114,0l0,-551l-114,0l0,87C424,24 365,-8 284,-8C222,-8 171,13 131,54C90,95 70,152 70,226l0,325l113,0l0,-308C183,194 195,156 220,130C245,103 278,90 321,90C364,90 398,103 423,130C448,156 460,194 460,243M508,720l0,-85l-366,0l0,85z"
   id="glyph534" />
<glyph
   unicode="Ů"
   horiz-adv-x="690"
   d="M74,254l0,441l114,0l0,-441C188,201 202,162 230,135C257,108 296,95 346,95C395,95 434,108 462,135C489,162 503,201 503,254l0,441l114,0l0,-441C617,170 591,106 539,61C486,16 421,-7 344,-7C266,-7 202,15 151,60C100,105 74,169 74,254M346,809C360,809 372,814 382,824C392,833 397,846 397,861C397,876 392,888 382,897C372,906 360,911 345,911C330,911 318,906 309,897C299,888 294,876 294,861C294,846 299,833 309,824C319,814 331,809 346,809M346,750C315,750 289,760 268,780C247,800 236,827 236,860C236,893 247,919 268,939C289,959 315,969 346,969C377,969 402,959 423,939C444,919 454,893 454,860C454,827 444,800 423,780C402,760 377,750 346,750z"
   id="glyph536" />
<glyph
   unicode="ů"
   horiz-adv-x="649"
   d="M460,551l114,0l0,-551l-114,0l0,87C424,24 365,-8 284,-8C222,-8 171,13 131,54C90,95 70,152 70,226l0,325l113,0l0,-308C183,194 195,156 220,130C245,103 278,90 321,90C364,90 398,103 423,130C448,156 460,194 460,243M434,715C434,682 424,655 403,635C382,615 357,605 326,605C295,605 269,615 248,635C227,655 216,682 216,715C216,748 227,774 248,794C269,814 295,824 326,824C357,824 382,814 403,794C424,774 434,748 434,715M362,752C352,761 340,766 325,766C310,766 298,761 289,752C279,743 274,731 274,716C274,701 279,688 289,679C299,669 311,664 326,664C340,664 352,669 362,679C372,688 377,701 377,716C377,731 372,743 362,752z"
   id="glyph538" />
<glyph
   unicode="Ű"
   horiz-adv-x="690"
   d="M286,916l99,0l-94,-170l-74,0M464,916l98,0l-108,-170l-74,0M74,254l0,441l114,0l0,-441C188,201 202,162 230,135C257,108 296,95 346,95C395,95 434,108 462,135C489,162 503,201 503,254l0,441l114,0l0,-441C617,170 591,106 539,61C486,16 421,-7 344,-7C266,-7 202,15 151,60C100,105 74,169 74,254z"
   id="glyph540" />
<glyph
   unicode="ű"
   horiz-adv-x="649"
   d="M460,551l114,0l0,-551l-114,0l0,87C424,24 365,-8 284,-8C222,-8 171,13 131,54C90,95 70,152 70,226l0,325l113,0l0,-308C183,194 195,156 220,130C245,103 278,90 321,90C364,90 398,103 423,130C448,156 460,194 460,243M364,771l-94,-170l-74,0l69,170M433,601l-74,0l84,170l98,0z"
   id="glyph542" />
<glyph
   unicode="Ų"
   horiz-adv-x="690"
   d="M74,254l0,441l114,0l0,-441C188,201 202,162 230,135C257,108 296,95 346,95C395,95 434,108 462,135C489,162 503,201 503,254l0,441l114,0l0,-441C617,184 600,129 565,88C530,47 489,20 440,6C417,0 402,-6 393,-12C384,-18 380,-26 380,-37C380,-62 396,-74 428,-74l92,0l0,-71l-106,0C377,-145 347,-135 323,-115C298,-96 286,-69 286,-36C286,-24 288,-13 292,-3C227,6 175,33 135,77C94,121 74,180 74,254z"
   id="glyph544" />
<glyph
   unicode="ų"
   horiz-adv-x="649"
   d="M525,-134l84,0l0,-72l-106,0C466,-206 436,-196 412,-176C387,-157 375,-132 375,-102C375,-73 383,-49 398,-32C413,-15 434,-3 460,3l0,84C424,24 365,-8 284,-8C222,-8 171,13 131,54C90,95 70,152 70,226l0,325l113,0l0,-308C183,194 195,156 220,130C245,103 278,90 321,90C364,90 398,103 423,130C448,156 460,194 460,243l0,308l114,0l0,-612l-49,0C506,-61 492,-63 483,-68C474,-73 469,-83 469,-97C469,-111 474,-121 483,-126C492,-131 506,-134 525,-134z"
   id="glyph546" />
<glyph
   unicode="Ÿ"
   horiz-adv-x="605"
   d="M360,0l-114,0l0,252l-231,443l127,0l160,-339l160,339l128,0l-230,-443M260,783C248,771 234,765 217,765C200,765 186,771 175,783C163,794 157,808 157,825C157,842 163,856 175,868C186,879 200,885 217,885C234,885 248,879 260,868C271,856 277,842 277,825C277,808 271,794 260,783M432,783C420,771 406,765 389,765C372,765 358,771 347,783C335,794 329,808 329,825C329,842 335,856 347,868C358,879 372,885 389,885C406,885 420,879 432,868C443,856 449,842 449,825C449,808 443,794 432,783z"
   id="glyph548" />
<glyph
   unicode="Ź"
   horiz-adv-x="558"
   d="M508,695l0,-89l-327,-517l327,0l0,-89l-458,0l0,89l326,517l-326,0l0,89M161,819l221,122l0,-97l-221,-109z"
   id="glyph550" />
<glyph
   unicode="ź"
   horiz-adv-x="471"
   d="M426,551l0,-93l-250,-365l250,0l0,-93l-382,0l0,93l251,365l-251,0l0,93M118,674l221,122l0,-97l-221,-109z"
   id="glyph552" />
<glyph
   unicode="Ż"
   horiz-adv-x="558"
   d="M322,783C310,771 296,765 279,765C262,765 248,771 237,783C225,794 219,808 219,825C219,842 225,856 237,868C248,879 262,885 279,885C296,885 310,879 322,868C333,856 339,842 339,825C339,808 333,794 322,783M508,695l0,-89l-327,-517l327,0l0,-89l-458,0l0,89l326,517l-326,0l0,89z"
   id="glyph554" />
<glyph
   unicode="ż"
   horiz-adv-x="471"
   d="M296,680C296,663 290,649 279,638C267,626 253,620 236,620C219,620 204,626 193,637C182,648 176,663 176,680C176,697 182,711 194,723C205,734 219,740 236,740C253,740 267,734 279,723C290,711 296,697 296,680M426,551l0,-93l-250,-365l250,0l0,-93l-382,0l0,93l251,365l-251,0l0,93z"
   id="glyph556" />
<glyph
   unicode="Ž"
   horiz-adv-x="558"
   d="M508,695l0,-89l-327,-517l327,0l0,-89l-458,0l0,89l326,517l-326,0l0,89M279,827l143,86l0,-89l-143,-83l-143,83l0,89z"
   id="glyph558" />
<glyph
   unicode="ž"
   horiz-adv-x="471"
   d="M426,551l0,-93l-250,-365l250,0l0,-93l-382,0l0,93l251,365l-251,0l0,93M236,682l143,86l0,-89l-143,-83l-143,83l0,89z"
   id="glyph560" />
<glyph
   unicode="ƒ"
   horiz-adv-x="332"
   d="M-34,-217l-22,0l10,94l16,0C-14,-123 -2,-118 7,-109C15,-100 20,-85 22,-64l55,522l-65,0l9,93l66,0l4,39C98,653 119,700 156,729C193,758 247,772 319,772l-10,-95C274,677 249,671 234,658C219,645 209,622 206,590l-4,-39l101,0l-9,-93l-102,0l-56,-522C131,-119 114,-158 86,-181C57,-205 17,-217 -34,-217z"
   id="glyph562" />
<glyph
   unicode="Ș"
   horiz-adv-x="604"
   d="M60,185l122,0C185,154 196,130 216,112C236,94 265,85 304,85C343,85 373,95 396,115C418,135 429,159 429,186C429,213 422,235 409,250C395,265 377,277 356,285C334,292 310,299 284,305C258,311 232,318 206,326C179,334 155,344 134,357C112,370 94,388 81,413C67,437 60,467 60,502C60,563 82,612 126,649C169,686 226,704 296,704C365,704 421,688 463,656C504,624 527,578 532,517l-126,0C403,544 392,566 372,584C352,602 325,611 291,611C257,611 229,602 208,585C187,568 176,543 176,510C176,477 189,451 214,434C239,417 270,404 306,396C342,388 378,379 414,369C450,358 481,339 506,311C531,283 544,243 544,192C544,141 522,95 479,54C436,13 378,-7 305,-7C232,-7 173,10 128,44C83,78 60,125 60,185M249,-46l103,0C361,-81 365,-114 365,-145C365,-228 328,-270 253,-270l0,50C285,-220 301,-201 301,-163l0,21l-52,0z"
   id="glyph564" />
<glyph
   unicode="ș"
   horiz-adv-x="534"
   d="M50,393C50,440 70,479 109,512C148,544 200,560 264,560C328,560 379,544 417,513C454,481 474,438 477,383l-117,0C358,410 349,432 332,447C315,462 291,470 260,470C229,470 205,463 188,450C171,436 162,418 162,396C162,373 173,356 195,343C217,330 244,321 276,315C307,309 339,302 371,293C402,284 429,269 451,246C473,223 484,192 484,153C484,105 464,66 424,36C383,6 331,-9 268,-9C205,-9 153,6 114,37C75,68 53,111 49,168l118,0C169,141 179,119 197,104C215,89 240,81 271,81C302,81 326,88 345,102C363,115 372,133 372,156C372,179 361,196 339,209C317,222 290,231 259,238C227,244 195,251 164,260C132,268 105,283 83,305C61,327 50,356 50,393M213,-46l103,0C325,-81 329,-114 329,-145C329,-228 292,-270 217,-270l0,50C249,-220 265,-201 265,-163l0,21l-52,0z"
   id="glyph566" />
<glyph
   unicode="Ț"
   horiz-adv-x="564"
   d="M39,606l0,89l485,0l0,-89l-185,0l0,-606l-114,0l0,606M228,-46l103,0C340,-81 344,-114 344,-145C344,-228 307,-270 232,-270l0,50C264,-220 280,-201 280,-163l0,21l-52,0z"
   id="glyph568" />
<glyph
   unicode="ț"
   horiz-adv-x="372"
   d="M342,458l-134,0l0,-305C208,132 213,118 223,109C232,100 249,95 272,95l70,0l0,-95l-90,0C146,0 93,51 93,153l0,305l-65,0l0,93l65,0l0,137l115,0l0,-137l134,0M133,-46l103,0C245,-81 249,-114 249,-145C249,-228 212,-270 137,-270l0,50C169,-220 185,-201 185,-163l0,21l-52,0z"
   id="glyph570" />
<glyph
   unicode="ʼ"
   horiz-adv-x="175"
   d="M30,799l103,0C142,764 146,731 146,700C146,617 109,575 34,575l0,50C66,625 82,644 82,682l0,21l-52,0z"
   id="glyph572" />
<glyph
   unicode="ˆ"
   horiz-adv-x="306"
   d="M296,685l0,-89l-143,86l-143,-86l0,89l143,83z"
   id="glyph574" />
<glyph
   unicode="ˇ"
   horiz-adv-x="306"
   d="M153,682l143,86l0,-89l-143,-83l-143,83l0,89z"
   id="glyph576" />
<glyph
   unicode="ˉ"
   horiz-adv-x="386"
   d="M10,635l0,85l366,0l0,-85z"
   id="glyph578" />
<glyph
   unicode="˘"
   horiz-adv-x="321"
   d="M311,747C311,705 298,671 271,646C244,621 207,608 160,608C113,608 77,621 50,647C23,672 10,706 10,748l0,21l65,0C75,745 81,727 94,715C107,703 129,697 160,697C191,697 213,703 226,715C239,727 245,745 245,769l66,0z"
   id="glyph580" />
<glyph
   unicode="˙"
   horiz-adv-x="140"
   d="M130,680C130,663 124,649 113,638C101,626 87,620 70,620C53,620 38,626 27,637C16,648 10,663 10,680C10,697 16,711 28,723C39,734 53,740 70,740C87,740 101,734 113,723C124,711 130,697 130,680z"
   id="glyph582" />
<glyph
   unicode="˚"
   horiz-adv-x="238"
   d="M120,664C134,664 146,669 156,679C166,688 171,701 171,716C171,731 166,743 156,752C146,761 134,766 119,766C104,766 92,761 83,752C73,743 68,731 68,716C68,701 73,688 83,679C93,669 105,664 120,664M120,605C89,605 63,615 42,635C21,655 10,682 10,715C10,748 21,774 42,794C63,814 89,824 120,824C151,824 176,814 197,794C218,774 228,748 228,715C228,682 218,655 197,635C176,615 151,605 120,605z"
   id="glyph584" />
<glyph
   unicode="˛"
   horiz-adv-x="265"
   d="M140,9l69,0l0,-69l-49,0C141,-60 127,-62 118,-67C109,-72 104,-82 104,-96C104,-110 109,-120 118,-125C127,-130 141,-133 160,-133l84,0l0,-72l-106,0C101,-205 71,-195 47,-175C22,-156 10,-129 10,-96C10,-63 22,-37 47,-18C71,0 102,9 140,9z"
   id="glyph586" />
<glyph
   unicode="˜"
   horiz-adv-x="356"
   d="M239,681C264,681 278,695 282,723l64,0C341,684 328,655 308,636C288,616 266,606 241,606C216,606 193,614 170,629C147,644 129,651 117,651C92,651 78,637 74,608l-64,0C15,647 28,676 48,696C68,715 90,725 115,725C140,725 164,718 187,703C210,688 227,681 239,681z"
   id="glyph588" />
<glyph
   unicode="˝"
   horiz-adv-x="365"
   d="M79,771l99,0l-94,-170l-74,0M257,771l98,0l-108,-170l-74,0z"
   id="glyph590" />
<glyph
   unicode="π"
   horiz-adv-x="706"
   d="M31,462l0,89l639,0l0,-89l-77,0l0,-462l-113,0l0,462l-259,0l0,-462l-114,0l0,462z"
   id="glyph592" />
<glyph
   unicode="ँ"
   horiz-adv-x="0"
   d="M-90,1031C-90,1015 -95,1002 -106,991C-117,980 -131,974 -146,974C-162,974 -175,980 -186,991C-197,1002 -203,1015 -203,1031C-203,1046 -197,1060 -186,1071C-175,1082 -162,1088 -146,1088C-131,1088 -117,1082 -106,1071C-95,1060 -90,1046 -90,1031M59,1003C59,947 42,902 8,867C-27,832 -78,815 -146,815C-214,815 -265,832 -299,867C-334,902 -351,947 -351,1003l91,0C-260,974 -250,949 -231,929C-212,908 -183,898 -146,898C-109,898 -81,908 -62,929C-43,949 -33,974 -33,1003z"
   id="glyph594" />
<glyph
   unicode="ं"
   horiz-adv-x="0"
   d="M-94,860C-107,847 -124,840 -143,840C-162,840 -179,847 -192,860C-205,873 -212,890 -212,909C-212,928 -205,944 -192,958C-179,971 -162,978 -143,978C-124,978 -107,971 -94,958C-81,944 -74,928 -74,909C-74,890 -81,873 -94,860z"
   id="glyph596" />
<glyph
   unicode="ः"
   horiz-adv-x="185"
   d="M154,197C154,180 148,165 136,154C124,142 110,136 93,136C76,136 61,142 50,154C38,166 32,180 32,197C32,214 38,228 50,240C61,252 76,258 93,258C110,258 124,252 136,241C148,229 154,214 154,197M154,493C154,476 148,461 136,449C124,437 110,431 93,431C76,431 61,437 50,449C38,461 32,475 32,492C32,509 38,523 50,535C61,547 76,553 93,553C110,553 124,547 136,536C148,524 154,510 154,493z"
   id="glyph598" />
<glyph
   unicode="अ"
   horiz-adv-x="841"
   d="M643,740l229,0l0,-95l-120,0l0,-645l-109,0l0,306l-132,0C515,292 517,277 517,261C517,197 497,147 458,111C419,74 367,56 303,56C238,56 186,74 146,111C106,148 86,198 86,261l103,0C189,228 200,201 221,180C242,159 269,149 304,149C338,149 365,159 385,180C405,200 415,227 415,261C415,331 372,366 287,366l-34,0l0,97l32,0C320,463 348,471 370,488C392,504 403,527 403,557C403,587 394,611 376,629C357,647 332,656 301,656C270,656 245,647 226,629C207,611 197,587 196,558l-102,0C94,615 114,662 153,697C192,732 242,750 303,750C363,750 412,733 450,700C487,666 506,621 506,565C506,530 497,499 480,474C463,449 438,431 407,420l0,-5C420,411 433,405 444,398l199,0z"
   id="glyph600" />
<glyph
   unicode="आ"
   horiz-adv-x="1127"
   d="M1159,740l0,-95l-120,0l0,-645l-109,0l0,645l-178,0l0,-645l-109,0l0,306l-132,0C515,292 517,277 517,261C517,197 497,147 458,111C419,74 367,56 303,56C238,56 186,74 146,111C106,148 86,198 86,261l103,0C189,228 200,201 221,180C242,159 269,149 304,149C338,149 365,159 385,180C405,200 415,227 415,261C415,331 372,366 287,366l-34,0l0,97l32,0C320,463 348,471 370,488C392,504 403,527 403,557C403,587 394,611 376,629C357,647 332,656 301,656C270,656 245,647 226,629C207,611 197,587 196,558l-102,0C94,615 114,662 153,697C192,732 242,750 303,750C363,750 412,733 450,700C487,666 506,621 506,565C506,530 497,499 480,474C463,449 438,431 407,420l0,-5C420,411 433,405 444,398l199,0l0,342z"
   id="glyph602" />
<glyph
   unicode="इ"
   horiz-adv-x="592"
   d="M485,461l-160,0C287,461 258,456 237,447C216,438 206,420 206,393C206,366 216,348 236,339C255,330 281,325 312,325C343,325 369,324 389,322C408,319 428,315 449,308C469,301 486,291 500,280C531,253 546,214 546,162C546,109 529,67 494,35C459,2 410,-14 347,-14C284,-14 236,5 205,44l0,-123l-104,0l0,271l104,0C210,114 251,75 330,75C364,75 391,82 410,97C429,111 439,132 439,161C439,194 426,216 401,225C379,233 352,237 319,237C286,237 257,239 234,244C210,248 187,255 166,266C120,289 97,334 97,399C97,476 140,525 226,544C249,549 275,552 303,552l73,0l0,93l-407,0l0,95l654,0l0,-95l-138,0z"
   id="glyph604" />
<glyph
   unicode="ई"
   horiz-adv-x="592"
   d="M725,862l-93,0C631,923 606,953 557,953C528,953 508,943 496,922C484,901 478,870 478,828l0,-88l145,0l0,-95l-138,0l0,-184l-160,0C287,461 258,456 237,447C216,438 206,420 206,393C206,366 216,348 236,339C255,330 281,325 312,325C343,325 369,324 389,322C408,319 428,315 449,308C469,301 486,291 500,280C531,253 546,214 546,162C546,109 529,67 494,35C459,2 410,-14 347,-14C284,-14 236,5 205,44l0,-123l-104,0l0,271l104,0C210,114 251,75 330,75C364,75 391,82 410,97C429,111 439,132 439,161C439,194 426,216 401,225C379,233 352,237 319,237C286,237 257,239 234,244C210,248 187,255 166,266C120,289 97,334 97,399C97,476 140,525 226,544C249,549 275,552 303,552l73,0l0,93l-407,0l0,95l413,0l0,87C382,971 441,1043 558,1043C612,1043 653,1027 682,995C711,962 725,918 725,862z"
   id="glyph606" />
<glyph
   unicode="उ"
   horiz-adv-x="577"
   d="M487,645l0,-27C487,559 481,513 469,479C456,445 432,419 395,402l0,-4C432,385 461,364 483,334C505,303 516,267 516,224C516,157 496,105 457,66C417,27 362,8 293,8C224,8 168,29 125,72C82,114 60,170 60,240l101,0C161,201 174,168 200,142C225,116 257,103 294,103C331,103 361,114 383,137C404,159 415,189 415,228C415,267 402,297 375,318C348,339 313,349 270,349l-39,0l0,97l34,0C310,446 342,460 359,489C376,518 385,560 385,615l0,30l-419,0l0,95l642,0l0,-95z"
   id="glyph608" />
<glyph
   unicode="ऊ"
   horiz-adv-x="853"
   d="M487,645l0,-27C487,559 481,513 468,479C455,445 431,419 394,401l0,-6l185,0C733,395 810,332 810,207C810,135 787,85 742,56C696,27 633,16 554,24l0,86C604,106 642,111 667,124C692,137 704,164 704,203C704,242 693,268 672,283C651,297 620,304 579,304l-81,0C510,281 516,254 516,224C516,157 496,105 457,66C417,27 362,8 293,8C224,8 168,29 125,72C82,114 60,170 60,240l101,0C161,201 174,168 199,142C224,116 256,103 294,103C331,103 361,114 383,136C404,158 415,189 415,228C415,267 401,297 374,318C347,339 312,349 269,349l-39,0l0,97l35,0C310,446 342,460 359,489C376,518 385,560 385,615l0,30l-416,0l0,95l915,0l0,-95z"
   id="glyph610" />
<glyph
   unicode="ऋ"
   horiz-adv-x="998"
   d="M1030,645l-442,0l0,-175l169,0C780,470 796,474 803,483C810,492 813,508 813,531l0,35l99,0l0,-354l-25,0C816,210 781,179 781,119C781,88 791,65 812,50C833,35 857,27 885,27C912,27 935,30 954,35l0,-87C932,-58 908,-61 883,-61C823,-61 774,-46 736,-15C697,15 678,59 678,117C678,160 690,196 714,225C738,254 771,273 813,282l0,101C799,380 780,379 757,379l-169,0l0,-379l-108,0l0,242l-233,-242l-141,0l0,6l366,348C462,387 445,412 420,431C395,450 361,459 319,459C276,459 241,444 214,413C186,382 172,341 172,290l-108,0C64,369 86,432 130,481C174,529 234,553 309,553C384,553 441,527 480,474l0,171l-511,0l0,95l1061,0z"
   id="glyph612" />
<glyph
   unicode="ऌ"
   horiz-adv-x="908"
   d="M814,-71C754,-71 705,-56 668,-26C630,4 611,48 611,106C611,149 623,184 646,213C669,242 700,260 740,268C742,309 735,344 718,373C701,402 671,416 629,416C544,416 506,351 513,220l-102,0C418,351 380,416 297,416C222,416 185,368 185,271C185,217 200,176 230,149C260,122 303,110 359,114l0,-97C272,10 204,29 153,76C102,122 76,185 76,265C76,345 94,406 131,449C168,492 220,513 287,513C330,513 367,503 398,483C428,463 450,435 463,398C480,453 518,487 576,500l0,145l-607,0l0,95l970,0l0,-95l-258,0l0,-136C732,500 773,476 803,437C832,398 847,345 847,279C847,256 844,230 839,202l-19,0C749,202 713,171 713,109C713,78 723,55 744,40C765,25 788,17 814,17C839,17 863,20 886,25l0,-87C864,-68 840,-71 814,-71z"
   id="glyph614" />
<glyph
   unicode="ऍ"
   horiz-adv-x="645"
   d="M678,740l0,-95l-111,0l0,-117C567,449 550,393 515,360C480,327 424,311 347,312l0,100C390,413 420,421 435,436C450,451 457,481 457,528l0,117l-261,0l0,-384C196,163 241,114 330,114C417,114 460,156 460,241l107,0C567,171 546,117 504,78C462,39 402,19 325,19C247,19 188,42 148,87C107,132 87,192 87,269l-1,376l-138,0l0,95M256,1011l136,0C392,930 374,883 339,872C335,856 330,848 325,848C319,848 314,856 310,872C274,882 256,928 256,1011z"
   id="glyph616" />
<glyph
   unicode="ए"
   horiz-adv-x="668"
   d="M699,740l0,-95l-111,0l0,-117C588,449 571,393 536,360C501,327 445,311 368,312l0,100C411,413 441,421 456,436C471,451 478,481 478,528l0,117l-261,0l0,-384C217,163 262,114 351,114C438,114 481,156 481,241l107,0C588,171 567,117 525,78C483,39 423,19 346,19C268,19 209,42 169,87C128,132 108,192 108,269l-1,376l-138,0l0,95z"
   id="glyph618" />
<glyph
   unicode="ऐ"
   horiz-adv-x="668"
   d="M699,740l0,-95l-111,0l0,-117C588,449 571,393 536,360C501,327 445,311 368,312l0,100C411,413 441,421 456,436C471,451 478,481 478,528l0,117l-261,0l0,-384C217,163 262,114 351,114C438,114 481,156 481,241l107,0C588,171 567,117 525,78C483,39 423,19 346,19C268,19 209,42 169,87C128,132 108,192 108,269l-1,376l-138,0l0,95l480,0C401,811 365,855 341,871C317,886 274,894 211,894l-41,0l0,89l36,0C241,983 269,982 290,979C310,976 332,971 355,963C378,954 399,941 418,924C457,885 503,824 554,740z"
   id="glyph620" />
<glyph
   unicode="ऑ"
   horiz-adv-x="1138"
   d="M1169,740l0,-95l-120,0l0,-645l-109,0l0,645l-178,0l0,-645l-109,0l0,306l-132,0C525,292 527,277 527,261C527,197 507,147 468,111C429,74 377,56 313,56C248,56 196,74 156,111C116,148 96,198 96,261l103,0C199,228 210,201 231,180C252,159 279,149 314,149C348,149 375,159 395,180C415,200 425,227 425,261C425,331 382,366 297,366l-34,0l0,97l32,0C330,463 358,471 380,488C402,504 413,527 413,557C413,587 404,611 386,629C367,647 342,656 311,656C280,656 255,647 236,629C217,611 207,587 206,558l-102,0C104,615 124,662 163,697C202,732 252,750 313,750C373,750 422,733 460,700C497,666 516,621 516,565C516,530 507,499 490,474C473,449 448,431 417,420l0,-5C430,411 443,405 454,398l199,0l0,342M973,1003l94,0C1067,946 1051,900 1019,866C987,832 936,815 867,815C798,815 747,832 716,866C684,900 668,946 668,1003l94,0C762,973 770,948 787,929C804,909 830,899 867,899C904,899 931,909 948,929C965,948 973,973 973,1003z"
   id="glyph622" />
<glyph
   unicode="ओ"
   horiz-adv-x="1138"
   d="M1169,740l0,-95l-120,0l0,-645l-109,0l0,645l-178,0l0,-645l-109,0l0,306l-132,0C525,292 527,277 527,261C527,197 507,147 468,111C429,74 377,56 313,56C248,56 196,74 156,111C116,148 96,198 96,261l103,0C199,228 210,201 231,180C252,159 279,149 314,149C348,149 375,159 395,180C415,200 425,227 425,261C425,331 382,366 297,366l-34,0l0,97l32,0C330,463 358,471 380,488C402,504 413,527 413,557C413,587 404,611 386,629C367,647 342,656 311,656C280,656 255,647 236,629C217,611 207,587 206,558l-102,0C104,615 124,662 163,697C202,732 252,750 313,750C373,750 422,733 460,700C497,666 516,621 516,565C516,530 507,499 490,474C473,449 448,431 417,420l0,-5C430,411 443,405 454,398l199,0l0,342l295,0C900,811 864,855 840,871C816,886 773,894 710,894l-41,0l0,89l36,0C740,983 768,982 789,979C809,976 831,971 854,963C877,954 898,941 916,924C956,885 1002,824 1053,740z"
   id="glyph624" />
<glyph
   unicode="औ"
   horiz-adv-x="1172"
   d="M1203,740l0,-95l-120,0l0,-645l-109,0l0,645l-178,0l0,-645l-109,0l0,306l-132,0C559,292 561,277 561,261C561,197 541,147 502,111C463,74 411,56 347,56C282,56 230,74 190,111C150,148 130,198 130,261l103,0C233,228 244,201 265,180C286,159 313,149 348,149C382,149 409,159 429,180C449,200 459,227 459,261C459,331 416,366 331,366l-34,0l0,97l32,0C364,463 392,471 414,488C436,504 447,527 447,557C447,587 438,611 420,629C401,647 376,656 345,656C314,656 289,647 270,629C251,611 241,587 240,558l-102,0C138,615 158,662 197,697C236,732 286,750 347,750C407,750 456,733 494,700C531,666 550,621 550,565C550,530 541,499 524,474C507,449 482,431 451,420l0,-5C464,411 477,405 488,398l199,0l0,342l289,0C943,771 913,789 886,796C859,803 814,806 750,806l-41,0l0,77l36,0C803,883 846,880 873,873C900,866 930,848 965,818C932,869 902,901 873,916C844,930 801,937 746,937l-41,0l0,78l36,0C776,1015 803,1013 824,1010C844,1007 865,1000 887,991C909,982 929,967 948,946C984,905 1028,836 1080,740z"
   id="glyph626" />
<glyph
   unicode="क"
   horiz-adv-x="1004"
   d="M1036,645l-467,0l0,-161C602,533 652,558 720,558C788,558 841,536 880,493C919,449 938,391 938,318C938,245 911,189 858,148C804,107 737,93 657,105l-1,90C709,189 752,197 783,220C814,243 829,277 829,322C829,367 818,401 795,426C772,451 739,463 697,463C654,463 622,450 601,423C580,396 569,358 569,310l0,-310l-106,0l0,169C428,119 376,94 307,94C238,94 183,116 143,160C102,203 82,259 82,326C82,393 102,448 142,492C182,536 237,558 306,558C375,558 428,533 463,482l0,163l-494,0l0,95l1067,0M191,326C191,283 203,249 227,225C251,201 285,189 328,189C371,189 404,201 428,226C451,250 463,283 463,326C463,368 451,401 427,426C403,450 370,462 327,462C284,462 250,450 227,426C203,402 191,369 191,326z"
   id="glyph628" />
<glyph
   unicode="ख"
   horiz-adv-x="928"
   d="M-31,740l991,0l0,-95l-121,0l0,-645l-105,0l0,192C704,152 657,132 594,132C583,132 576,132 571,133C554,90 525,57 483,34C441,10 392,-2 335,-2C256,-2 194,20 148,64C102,108 79,170 79,249l0,158l31,0C159,407 195,413 218,424C239,435 251,463 256,506C259,526 260,553 260,586l0,59l-291,0M188,242C188,143 237,93 334,93C408,93 455,119 474,172C424,210 399,265 399,338C399,397 417,446 454,485C490,523 538,542 599,542C659,542 704,523 734,484l0,161l-366,0l0,-59C368,489 356,423 332,388C308,353 260,333 188,328M500,338C500,302 511,274 533,253C554,232 583,222 618,222C653,222 681,232 702,253C723,274 733,302 733,338C733,373 723,401 703,422C682,443 654,453 619,453C583,453 554,443 533,422C511,401 500,373 500,338z"
   id="glyph630" />
<glyph
   unicode="ग"
   horiz-adv-x="743"
   d="M-31,740l806,0l0,-95l-121,0l0,-645l-108,0l0,645l-182,0l0,-229C364,346 351,293 326,258C301,223 258,205 198,205C81,205 24,273 28,410l108,0C136,355 146,321 165,309C174,304 185,301 199,301C213,301 224,304 233,310C242,315 248,324 252,336C257,355 260,381 260,414l0,231l-291,0z"
   id="glyph632" />
<glyph
   unicode="घ"
   horiz-adv-x="696"
   d="M727,740l0,-95l-120,0l0,-645l-109,0l0,190C455,133 387,105 296,105C235,105 183,121 139,152C95,183 73,228 73,286C73,321 82,352 101,377C119,402 143,421 172,433l0,6C140,454 118,475 106,504C94,532 88,572 88,624l0,21l-119,0l0,95M498,356l0,289l-300,0l0,-21C198,572 206,535 221,514C236,492 267,481 313,481l39,0l0,-91l-41,0C272,390 240,382 217,365C194,348 182,324 182,292C182,260 195,236 221,221C246,205 282,197 327,197C372,197 411,212 446,241C481,270 498,308 498,356z"
   id="glyph634" />
<glyph
   unicode="ङ"
   horiz-adv-x="676"
   d="M-31,740l738,0l0,-95l-235,0l0,-184l-160,0C274,461 245,456 224,447C203,438 193,420 193,393C193,366 203,348 222,339C241,330 267,325 299,325C330,325 356,324 376,322C395,319 415,315 436,308C456,301 473,291 486,279C517,252 533,212 533,160C533,108 514,66 475,34C436,2 381,-14 312,-14C242,-14 185,4 140,40C95,76 71,127 70,192l107,0C182,114 228,75 314,75C388,75 425,104 425,161C425,192 415,212 394,222C373,232 344,237 309,237C274,237 244,239 221,244C197,248 174,255 152,266C106,289 83,334 83,399C83,476 126,525 212,544C235,549 261,552 289,552l74,0l0,93l-394,0M536,418C549,431 564,437 582,437C600,437 615,431 628,418C641,405 647,390 647,372C647,354 641,339 628,326C615,313 600,306 582,306C564,306 549,313 536,326C523,339 517,354 517,372C517,390 523,405 536,418z"
   id="glyph636" />
<glyph
   unicode="च"
   horiz-adv-x="735"
   d="M-31,740l797,0l0,-95l-120,0l0,-645l-109,0l0,177C502,122 445,94 365,94C301,94 247,112 204,149C161,186 139,234 139,294C139,353 160,400 203,434l-154,0l0,88l366,0l0,-88l-32,0C341,434 307,423 282,401C257,379 244,349 244,310C244,271 257,241 283,220C309,199 344,188 387,188C430,188 466,204 495,236C523,268 537,308 537,356l0,289l-568,0z"
   id="glyph638" />
<glyph
   unicode="छ"
   horiz-adv-x="823"
   d="M854,645l-203,0l0,-95C690,537 720,513 741,477C761,440 771,395 771,340C771,245 740,169 677,114C614,59 526,31 411,31C281,31 186,61 127,122C94,155 78,194 78,237C78,320 114,376 187,406l0,6C151,425 127,448 114,480C101,511 94,556 94,615l0,30l-125,0l0,95l885,0M203,645l0,-34C203,552 211,512 227,489C242,466 275,454 324,454l13,0l0,-92l-16,0C281,362 249,353 225,334C200,315 188,290 188,257C188,224 199,197 221,178C260,143 323,125 408,125C493,125 559,143 606,180C653,216 677,271 677,345C677,387 669,419 653,441C636,463 613,474 583,474C553,474 530,461 515,435C499,408 492,360 493,289l-94,0C396,376 406,441 431,483C456,525 494,550 546,557l1,88z"
   id="glyph640" />
<glyph
   unicode="ज"
   horiz-adv-x="836"
   d="M-31,740l898,0l0,-95l-120,0l0,-645l-109,0l0,419l-159,0l0,-63C479,275 464,212 433,168C402,124 349,102 274,102C192,102 135,127 104,178C76,223 62,283 62,356l0,153l109,0l0,-129C171,302 179,252 196,230C212,208 238,197 273,197C307,197 333,208 350,230C362,245 369,275 371,319C372,334 372,354 372,380l0,129l266,0l0,136l-669,0z"
   id="glyph642" />
<glyph
   unicode="झ"
   horiz-adv-x="845"
   d="M876,740l0,-95l-120,0l0,-645l-109,0l0,262l-160,0C510,248 522,224 522,189C522,142 506,102 475,71C443,40 398,24 339,24C310,24 282,29 257,40C231,51 211,65 198,83l0,-126l-104,0l0,262l104,0C199,186 211,160 233,141C254,122 282,112 316,112C385,112 420,139 420,194C420,227 409,247 386,254C368,260 344,263 314,263C284,263 260,264 242,266C224,267 205,271 185,277C164,283 148,291 135,302C105,327 90,365 90,416C90,513 159,562 296,562l73,0l0,83l-400,0l0,95M647,349l0,296l-169,0l0,-174l-160,0C269,471 237,466 222,457C207,448 199,431 199,408C199,385 208,369 225,361C242,353 267,349 301,349z"
   id="glyph644" />
<glyph
   unicode="ञ"
   horiz-adv-x="833"
   d="M-31,740l895,0l0,-95l-120,0l0,-645l-109,0l0,284l-113,0C514,225 490,177 451,142C411,107 358,89 292,89C225,89 172,106 133,139C94,172 70,213 62,263l107,0C175,240 189,222 210,207C231,192 260,184 299,184C337,184 367,197 388,223C409,248 420,284 420,329C420,374 409,409 388,435C367,461 337,474 299,474C260,474 231,467 210,452C189,437 175,418 169,395l-107,0C70,444 94,486 134,519C173,552 226,568 291,568C356,568 409,551 449,516C488,481 512,435 521,378l114,0l0,267l-666,0z"
   id="glyph646" />
<glyph
   unicode="ट"
   horiz-adv-x="657"
   d="M451,461l-72,0C316,461 267,447 230,420C193,392 174,352 174,299C174,246 190,204 221,175C252,145 292,130 343,130C394,130 434,145 463,175C492,204 506,245 506,296l105,0C611,215 587,152 538,105C489,58 424,35 343,35C262,35 195,59 144,106C93,153 67,217 67,296C67,375 92,437 143,482C193,527 259,552 342,555l0,90l-373,0l0,95l719,0l0,-95l-237,0z"
   id="glyph648" />
<glyph
   unicode="ठ"
   horiz-adv-x="670"
   d="M507,299C507,348 492,387 462,417C431,447 391,462 342,462C292,462 252,447 222,417C191,387 176,348 176,299C176,250 191,211 222,181C252,151 292,136 342,136C391,136 431,151 462,181C492,211 507,250 507,299M287,550l0,95l-318,0l0,95l732,0l0,-95l-306,0l0,-95C460,541 513,513 554,468C594,423 614,364 614,292C614,219 588,160 537,113C486,66 420,42 341,42C262,42 197,66 146,113C95,160 69,220 69,292C69,364 89,423 129,468C169,513 222,540 287,550z"
   id="glyph650" />
<glyph
   unicode="ड"
   horiz-adv-x="578"
   d="M472,461l-160,0C274,461 245,456 224,447C203,438 193,420 193,393C193,366 203,348 222,339C241,330 267,325 299,325C330,325 356,324 376,322C395,319 415,315 436,308C456,301 473,291 486,279C517,252 533,212 533,160C533,108 514,66 475,34C436,2 381,-14 312,-14C242,-14 185,4 140,40C95,76 71,127 70,192l107,0C182,114 228,75 314,75C388,75 425,104 425,161C425,192 415,212 394,222C373,232 344,237 309,237C274,237 244,239 221,244C197,248 174,255 152,266C106,289 83,334 83,399C83,476 126,525 212,544C235,549 261,552 289,552l74,0l0,93l-394,0l0,95l640,0l0,-95l-137,0z"
   id="glyph652" />
<glyph
   unicode="ढ"
   horiz-adv-x="638"
   d="M481,470l-83,0C329,470 274,454 233,421C192,388 172,342 172,282C172,221 190,175 227,144C263,113 312,97 374,97C416,97 449,106 472,125C495,143 506,166 506,194C506,252 480,281 429,281C380,281 355,252 355,194l-96,0C258,247 272,290 301,322C330,353 371,369 426,369C480,369 524,354 558,324C591,293 608,253 608,202C608,139 586,90 542,55C497,20 440,2 371,2C282,2 208,27 151,76C94,125 65,193 65,282C65,370 93,438 150,486C207,534 281,560 372,563l0,82l-403,0l0,95l700,0l0,-95l-188,0z"
   id="glyph654" />
<glyph
   unicode="ण"
   horiz-adv-x="870"
   d="M-31,740l933,0l0,-95l-121,0l0,-645l-108,0l0,645l-161,0l0,-249C512,238 442,159 303,159C164,159 94,238 94,396l0,249l-125,0M404,392l0,253l-203,0l0,-253C201,347 208,312 223,289C238,266 264,254 303,254C342,254 368,266 383,289C397,312 404,347 404,392z"
   id="glyph656" />
<glyph
   unicode="त"
   horiz-adv-x="681"
   d="M345,88l0,-89l-19,0C240,-1 175,20 130,63C85,106 62,168 62,251C62,334 88,395 140,435C191,475 260,495 347,495l137,0l0,150l-515,0l0,95l744,0l0,-95l-121,0l0,-645l-108,0l0,400l-135,0C294,400 251,388 219,363C187,338 171,299 171,247C171,194 185,155 212,128C239,101 284,88 345,88z"
   id="glyph658" />
<glyph
   unicode="थ"
   horiz-adv-x="768"
   d="M86,455l101,-1C250,454 297,462 328,478C359,493 374,522 374,564C374,592 366,614 351,630C336,645 314,653 286,653C257,653 236,643 221,624C206,605 200,579 201,546l-102,0C96,607 113,657 149,694C184,731 230,749 287,749C344,749 390,732 426,699C461,666 479,620 479,561C479,432 385,368 197,371C194,315 207,270 238,236C268,202 312,185 371,185C429,185 476,203 513,240C550,276 569,324 570,384l0,356l229,0l0,-95l-120,0l0,-645l-109,0l0,191C554,163 528,139 493,120C457,100 413,90 361,90C262,90 188,124 139,192C90,259 72,347 86,455z"
   id="glyph660" />
<glyph
   unicode="द"
   horiz-adv-x="601"
   d="M530,-8l-108,0l0,137C397,98 353,82 289,82C225,82 171,102 127,143C83,184 61,243 61,320C61,397 87,455 140,494C192,533 262,553 351,553l35,0l0,92l-417,0l0,95l663,0l0,-95l-137,0l0,-190l-133,0C234,455 170,407 170,310C170,266 183,233 209,210C234,187 267,176 307,176C390,176 432,212 432,285l98,0z"
   id="glyph662" />
<glyph
   unicode="ध"
   horiz-adv-x="725"
   d="M755,740l0,-95l-119,0l0,-645l-109,0l0,180C483,124 414,96 320,96C258,96 205,112 160,144C115,176 93,220 93,276C93,347 128,396 199,422l0,6C166,440 140,460 120,487C99,514 89,550 89,594C89,637 105,674 137,705C169,735 212,750 266,750C319,750 361,733 392,698C423,663 436,619 432,564l-91,0C342,592 337,614 324,631C311,647 292,655 268,655C243,655 224,648 210,634C196,620 189,601 189,578C189,541 203,514 230,497C257,479 293,470 336,470l54,0l0,-91l-44,0C303,379 269,372 242,357C215,342 202,319 202,286C202,253 216,229 243,213C270,197 303,189 342,189C395,189 439,205 474,236C509,267 527,309 527,361l0,379z"
   id="glyph664" />
<glyph
   unicode="न"
   horiz-adv-x="790"
   d="M364,288C364,321 355,346 336,365C317,384 292,393 261,393C229,393 203,384 182,366C161,347 151,321 151,288C151,255 162,229 183,211C204,192 230,183 261,183C291,183 316,192 335,211C354,230 364,255 364,288M593,0l0,395l-188,0C442,370 460,329 460,273C460,217 442,172 407,139C371,105 323,88 262,88C201,88 150,106 110,143C70,180 50,229 50,291C50,353 71,401 112,436C153,471 210,488 283,488l310,0l0,157l-624,0l0,95l853,0l0,-95l-121,0l0,-645z"
   id="glyph666" />
<glyph
   unicode="प"
   horiz-adv-x="665"
   d="M-31,740l727,0l0,-95l-120,0l0,-645l-109,0l0,267C434,216 382,190 310,190C237,190 182,214 144,261C106,308 87,368 87,443l0,202l-118,0M196,645l0,-202C196,338 242,285 333,285C373,285 405,299 430,327C455,354 467,390 467,435l0,210z"
   id="glyph668" />
<glyph
   unicode="फ"
   horiz-adv-x="985"
   d="M1016,645l-457,0l0,-182C594,513 645,538 713,538C781,538 834,517 873,476C912,434 931,378 931,309C931,240 907,185 859,145C811,105 748,88 669,95l-1,92C716,183 754,192 783,215C812,237 826,269 826,311C826,353 815,385 792,408C769,431 737,442 695,442C653,442 620,428 596,400C571,371 559,335 559,291l0,-291l-109,0l0,292C418,244 368,220 300,220C231,220 179,243 144,290C108,337 90,397 90,472l0,173l-121,0l0,95l1047,0M199,645l0,-174C199,420 209,381 228,354C247,327 278,314 321,314C364,314 397,329 418,359C439,388 450,426 450,473l0,172z"
   id="glyph670" />
<glyph
   unicode="ब"
   horiz-adv-x="670"
   d="M-31,740l733,0l0,-95l-121,0l0,-645l-105,0l0,159C437,104 380,76 305,76C229,76 168,99 121,146C74,192 50,251 50,324C50,396 74,455 121,501C168,547 229,570 305,570C380,570 437,542 476,486l0,159l-507,0M480,323C480,370 465,408 435,438C405,468 368,483 323,483C278,483 241,473 211,452l257,-193C476,278 480,299 480,323M149,323C149,274 165,235 196,206C227,177 266,163 313,163C360,163 398,176 427,201l-262,197C154,375 149,350 149,323z"
   id="glyph672" />
<glyph
   unicode="भ"
   horiz-adv-x="822"
   d="M853,740l0,-95l-120,0l0,-645l-109,0l0,364l-150,0l0,-53C474,162 410,87 283,87C226,87 179,104 141,139C103,174 84,219 84,274C84,395 163,456 321,456l50,0l0,72C371,567 366,597 355,619C344,640 324,651 295,651C266,651 246,640 236,619C225,597 220,566 220,525l-107,0C112,673 172,747 294,747C414,747 474,674 474,527l0,-71l150,0l0,284M371,308l0,56l-54,0C276,364 244,357 222,343C199,329 188,307 188,277C188,246 197,223 214,206C231,189 255,181 286,181C316,181 338,192 351,213C364,234 371,266 371,308z"
   id="glyph674" />
<glyph
   unicode="म"
   horiz-adv-x="806"
   d="M837,740l0,-95l-120,0l0,-645l-109,0l0,366l-166,0l0,-53C442,164 378,89 251,89C194,89 147,106 109,141C71,176 52,221 52,276C52,397 131,458 288,458l51,0l0,187l-370,0l0,95M339,310l0,56l-54,0C244,366 212,359 189,345C166,331 155,309 155,278C155,247 164,224 182,208C199,191 223,183 254,183C284,183 306,194 319,215C332,236 339,268 339,310M608,458l0,187l-166,0l0,-187z"
   id="glyph676" />
<glyph
   unicode="य"
   horiz-adv-x="736"
   d="M-31,740l798,0l0,-95l-120,0l0,-645l-109,0l0,196C499,131 433,98 340,98C247,98 177,129 130,192C83,255 62,339 67,445C127,445 169,451 192,464C205,471 216,479 223,486C230,493 236,505 240,520C245,542 247,575 247,618l0,27l-278,0M355,645l0,-30C355,533 344,474 321,438C298,402 251,381 180,376C179,321 195,277 227,244C258,210 302,193 359,193C415,193 459,211 491,248C522,285 538,333 538,392l0,253z"
   id="glyph678" />
<glyph
   unicode="र"
   horiz-adv-x="524"
   d="M454,645l0,-45C454,490 437,417 402,380C367,343 295,325 186,324l0,-111C186,133 217,93 279,93C340,93 371,132 371,211l108,0C479,144 462,91 428,54C393,17 344,-2 279,-2C214,-2 164,17 129,55C94,92 76,145 76,212l0,201C179,413 244,416 269,422C302,430 324,449 334,479C341,503 345,544 345,602l0,43l-376,0l0,95l587,0l0,-95z"
   id="glyph680" />
<glyph
   unicode="ऱ"
   horiz-adv-x="524"
   d="M454,645l0,-45C454,490 437,417 402,380C367,343 295,325 186,324l0,-111C186,133 217,93 279,93C340,93 371,132 371,211l108,0C479,144 462,91 428,54C393,17 344,-2 279,-2C214,-2 164,17 129,55C94,92 76,145 76,212l0,201C179,413 244,416 269,422C302,430 324,449 334,479C341,503 345,544 345,602l0,43l-376,0l0,95l587,0l0,-95M-12,6C1,19 17,26 36,26C55,26 71,19 85,6C98,-7 105,-24 105,-43C105,-62 98,-79 85,-92C71,-105 55,-112 36,-112C17,-112 1,-105 -12,-92C-26,-79 -33,-62 -33,-43C-33,-24 -26,-7 -12,6z"
   id="glyph682" />
<glyph
   unicode="ल"
   horiz-adv-x="908"
   d="M297,416C222,416 185,368 185,271C185,217 200,176 230,149C260,122 303,110 359,114l0,-97C272,10 204,29 153,76C102,122 76,185 76,265C76,345 94,406 131,449C168,492 220,513 287,513C330,513 367,503 398,483C428,463 450,435 463,398C480,453 518,487 576,500l0,145l-607,0l0,95l970,0l0,-95l-258,0l0,-136C735,500 776,474 805,433C834,392 848,337 848,270C848,187 823,122 772,76C721,29 652,10 565,17l0,97C621,110 664,122 694,149C724,176 739,217 739,271C739,368 702,416 627,416C544,416 506,351 513,220l-102,0C418,351 380,416 297,416z"
   id="glyph684" />
<glyph
   unicode="ळ"
   horiz-adv-x="935"
   d="M967,645l-260,0l0,-136C766,502 814,477 851,436C888,395 907,342 907,277C907,212 885,158 842,115C798,72 742,51 674,51C631,51 592,61 557,82C522,102 495,131 478,168C461,130 435,101 400,81C364,61 325,51 283,51C215,51 159,72 116,115C72,158 50,213 50,281C50,349 72,404 116,447C160,490 216,511 283,511C325,511 364,501 399,482C434,462 460,433 478,394C502,447 543,483 601,501l0,144l-632,0l0,95l998,0M425,281C424,321 412,354 388,379C364,404 332,416 292,416C251,416 219,404 194,379C169,354 156,322 156,281C156,240 169,208 194,183C219,158 251,146 292,146C332,146 364,159 389,184C413,209 425,241 425,281M764,183C789,208 801,240 801,281C801,322 789,354 764,379C739,404 706,416 666,416C626,416 594,403 569,378C544,353 532,320 532,281C532,241 544,209 569,184C594,159 626,146 666,146C706,146 739,158 764,183z"
   id="glyph686" />
<glyph
   unicode="व"
   horiz-adv-x="647"
   d="M-31,740l709,0l0,-95l-120,0l0,-645l-105,0l0,165C414,111 356,84 279,84C213,84 158,107 115,153C71,198 49,255 49,323C49,391 71,448 115,494C158,540 213,563 279,563C357,563 415,536 453,481l0,164l-484,0M453,323l0,1C453,368 440,403 413,430C386,456 350,469 305,469C260,469 224,456 197,430C170,403 156,368 156,323C156,278 170,243 197,217C224,190 260,177 305,177C350,177 386,190 413,217C440,243 453,278 453,323z"
   id="glyph688" />
<glyph
   unicode="श"
   horiz-adv-x="824"
   d="M855,645l-120,0l0,-645l-109,0l0,740l229,0M207,318l0,-114C207,168 216,141 234,122C251,103 278,93 313,93C348,93 373,104 389,127C404,149 412,181 412,224l107,0C518,73 448,-2 311,-2C246,-2 194,16 155,53C116,90 97,141 97,208l0,201C111,408 141,408 188,408C234,408 268,410 291,413C313,416 335,421 356,430C400,447 422,485 422,543C422,578 413,605 395,624C377,643 350,653 314,653C278,653 251,640 234,615C216,589 208,556 209,515l-108,0C98,581 115,637 152,682C189,727 242,749 311,749C380,749 434,730 473,693C512,655 531,605 531,544C531,466 508,410 462,375C415,340 349,321 264,318z"
   id="glyph690" />
<glyph
   unicode="ष"
   horiz-adv-x="669"
   d="M-31,740l731,0l0,-95l-120,0l0,-645l-109,0l0,260C439,207 383,181 304,181C235,181 182,204 144,249C105,294 86,354 86,427l0,218l-117,0M471,645l-276,0l0,-3l276,-210M195,435C195,385 206,346 229,318C252,290 287,276 335,276C392,276 432,302 455,353l-260,197z"
   id="glyph692" />
<glyph
   unicode="स"
   horiz-adv-x="806"
   d="M837,740l0,-95l-120,0l0,-645l-109,0l0,334l-421,0l0,-126C187,131 218,93 280,93C315,93 339,104 353,127C366,150 373,182 372,225l108,0C480,74 414,-2 281,-2C216,-2 165,17 130,56C95,95 77,147 77,212l0,202l58,0C173,414 202,417 223,422l1,2l9,0C268,434 291,453 302,480C313,507 318,551 318,612l0,33l-349,0l0,95M608,424l0,221l-182,0l0,-36C426,524 414,462 391,424z"
   id="glyph694" />
<glyph
   unicode="ह"
   horiz-adv-x="612"
   d="M485,465l-171,0C245,465 210,442 210,397C210,368 226,347 259,333C278,337 299,339 320,339C384,339 437,323 479,291C520,258 542,217 545,167l-106,0C434,191 422,210 402,225C381,239 353,246 317,246C281,246 251,235 228,213C205,191 193,162 193,125C193,88 205,58 228,35C251,12 280,1 317,1C353,1 381,8 402,23C422,37 434,56 439,80l106,0C542,30 520,-11 479,-43C437,-76 382,-92 315,-92C247,-92 192,-72 149,-32C106,7 85,62 85,131C85,200 111,254 164,293C123,320 102,358 102,406C102,454 119,491 154,517C189,543 237,556 299,556l77,0l0,89l-407,0l0,95l675,0l0,-95l-159,0z"
   id="glyph696" />
<glyph
   unicode="़"
   horiz-adv-x="0"
   d="M-284,-168C-297,-181 -314,-188 -333,-188C-352,-188 -369,-181 -382,-168C-395,-155 -402,-138 -402,-119C-402,-100 -395,-83 -382,-70C-369,-57 -352,-50 -333,-50C-314,-50 -297,-57 -284,-70C-271,-83 -264,-100 -264,-119C-264,-138 -271,-155 -284,-168z"
   id="glyph698" />
<glyph
   unicode="ऽ"
   horiz-adv-x="602"
   d="M306,56l-253,0l0,95l236,0C320,151 342,153 355,158C368,162 374,171 374,186C374,200 367,218 354,239C341,260 325,282 306,306C287,329 269,354 250,380C204,441 181,495 181,541C181,586 197,620 229,641C261,662 303,672 355,672l192,0l0,-95l-145,0C367,577 341,573 324,566C306,558 297,545 297,526C297,507 307,483 327,454C347,425 369,396 393,368C417,339 439,306 459,269C479,232 489,196 489,161C489,126 475,100 446,83C417,65 370,56 306,56z"
   id="glyph700" />
<glyph
   unicode="ा"
   horiz-adv-x="287"
   d="M318,645l-120,0l0,-645l-109,0l0,645l-120,0l0,95l349,0z"
   id="glyph702" />
<glyph
   unicode="ि"
   horiz-adv-x="287"
   d="M91,740l0,12C91,800 102,841 123,876C144,910 173,936 211,955C249,974 291,987 336,996C381,1004 431,1008 486,1008C541,1008 592,1004 637,996C682,987 723,974 762,955C800,936 830,910 851,876C872,841 882,800 882,752l0,-52l-108,0l0,41C774,814 743,862 682,886C632,905 567,915 486,915C405,915 339,905 290,886C229,861 199,813 199,741l0,-1l119,0l0,-95l-120,0l0,-645l-109,0l0,645l-120,0l0,95z"
   id="glyph704" />
<glyph
   unicode="ी"
   horiz-adv-x="287"
   d="M195,740l123,0l0,-95l-120,0l0,-645l-109,0l0,645l-120,0l0,95l122,0l0,28C91,819 85,857 72,881C59,904 35,916 -1,916C-37,916 -61,904 -74,881C-87,857 -93,819 -93,768l0,-68l-104,0l0,75C-197,849 -182,906 -153,947C-124,988 -73,1008 -1,1008C71,1008 122,988 151,947C180,906 195,849 195,775z"
   id="glyph706" />
<glyph
   unicode="ु"
   horiz-adv-x="0"
   d="M-430,-73l100,0C-328,-158 -281,-201 -189,-201C-118,-201 -83,-172 -83,-115C-83,-86 -92,-64 -110,-51C-128,-38 -156,-32 -194,-31l0,88C-125,60 -72,46 -37,16C-2,-15 15,-58 15,-113C15,-168 -3,-212 -38,-243C-73,-274 -126,-290 -196,-290C-267,-290 -323,-271 -365,-233C-407,-195 -429,-142 -430,-73z"
   id="glyph708" />
<glyph
   unicode="ू"
   horiz-adv-x="0"
   d="M-141,51C-32,51 41,5 80,-86C103,-139 113,-203 112,-276l-96,0C17,-198 6,-138 -18,-97C-43,-56 -84,-36 -141,-36C-172,-36 -197,-43 -216,-58C-235,-73 -245,-95 -245,-124C-245,-153 -235,-175 -215,-188C-196,-201 -170,-206 -138,-201l0,-86C-197,-293 -245,-282 -282,-253C-319,-224 -338,-181 -338,-124C-338,-67 -319,-23 -281,7C-243,36 -196,51 -141,51z"
   id="glyph710" />
<glyph
   unicode="ृ"
   horiz-adv-x="0"
   d="M-93,0l-17,0C-175,0 -207,-30 -207,-90C-207,-117 -199,-139 -183,-155C-167,-171 -145,-179 -118,-179C-91,-179 -69,-175 -53,-168l0,-88C-72,-264 -95,-268 -122,-268C-179,-268 -224,-252 -258,-220C-293,-188 -310,-145 -310,-92C-310,-39 -293,4 -259,35C-225,66 -177,82 -115,82C-103,82 -96,82 -93,81z"
   id="glyph712" />
<glyph
   unicode="ॄ"
   horiz-adv-x="0"
   d="M-80,-438l-39,0C-178,-438 -226,-426 -263,-403C-301,-380 -320,-342 -320,-291C-320,-240 -293,-203 -240,-181C-265,-171 -284,-156 -299,-136C-314,-117 -321,-92 -321,-62C-321,-32 -311,-6 -290,16C-254,53 -200,72 -127,72l30,0l0,-72l-21,0C-185,0 -219,-22 -219,-67C-219,-93 -209,-111 -190,-120C-171,-129 -144,-134 -111,-134l31,0l0,-85l-37,0C-149,-220 -174,-225 -191,-234C-209,-244 -218,-262 -218,-288C-218,-331 -184,-353 -117,-353l37,0z"
   id="glyph714" />
<glyph
   unicode="ॅ"
   horiz-adv-x="0"
   d="M59,1003C59,946 42,901 9,867C-25,832 -77,815 -146,815C-215,815 -267,832 -300,867C-334,901 -351,946 -351,1003l94,0C-257,974 -248,949 -229,929C-211,909 -183,899 -146,899C-109,899 -82,909 -63,929C-44,949 -35,974 -35,1003z"
   id="glyph716" />
<glyph
   unicode="े"
   horiz-adv-x="0"
   d="M-440,894l-41,0l0,89l36,0C-409,983 -381,982 -360,979C-340,976 -318,971 -295,963C-272,954 -251,941 -232,922C-190,881 -144,818 -93,733l-104,0C-225,774 -246,804 -259,822C-272,839 -288,855 -307,868C-326,881 -345,888 -362,891C-379,893 -405,894 -440,894z"
   id="glyph718" />
<glyph
   unicode="ै"
   horiz-adv-x="0"
   d="M-471,1015l36,0C-391,1015 -357,1013 -333,1008C-310,1003 -284,991 -257,971C-230,951 -205,923 -181,887C-157,850 -127,798 -91,731l-99,0C-227,766 -259,788 -286,795C-313,802 -360,806 -426,806l-41,0l0,77l36,0C-373,883 -330,880 -303,873C-276,866 -246,848 -211,818C-244,869 -274,901 -303,916C-332,930 -375,937 -430,937l-41,0z"
   id="glyph720" />
<glyph
   unicode="ॉ"
   horiz-adv-x="282"
   d="M346,1003C346,946 329,901 296,867C262,832 210,815 141,815C72,815 20,832 -13,867C-47,901 -64,946 -64,1003l94,0C30,974 39,949 58,929C76,909 104,899 141,899C178,899 205,909 224,929C243,949 252,974 252,1003M318,645l-120,0l0,-645l-109,0l0,645l-120,0l0,95l349,0z"
   id="glyph722" />
<glyph
   unicode="ो"
   horiz-adv-x="287"
   d="M318,740l0,-95l-120,0l0,-645l-109,0l0,645l-120,0l0,95l113,0C34,811 -2,855 -26,871C-50,886 -93,894 -156,894l-41,0l0,89l36,0C-126,983 -98,982 -77,979C-57,976 -35,971 -12,963C11,954 32,941 50,924C90,885 136,824 187,740z"
   id="glyph724" />
<glyph
   unicode="ौ"
   horiz-adv-x="271"
   d="M318,740l0,-95l-120,0l0,-645l-109,0l0,645l-120,0l0,95l121,0C57,771 27,789 0,796C-27,803 -72,806 -136,806l-41,0l0,77l36,0C-83,883 -40,880 -13,873C14,866 44,848 79,818C46,869 16,901 -13,916C-42,930 -85,937 -140,937l-41,0l0,78l36,0C-110,1015 -83,1013 -62,1010C-42,1007 -21,1000 1,991C23,982 43,967 62,946C98,905 142,836 194,740z"
   id="glyph726" />
<glyph
   unicode="्"
   horiz-adv-x="0"
   d="M34,-239l-113,0l-111,181l104,0z"
   id="glyph728" />
<glyph
   unicode="ॐ"
   horiz-adv-x="350"
   d="M488,375C528,375 556,380 572,391C587,402 595,423 595,455C595,533 610,592 640,631C670,670 721,690 792,690C863,690 915,670 946,629C977,588 993,527 993,444l0,-112C993,213 964,130 907,83C849,36 750,22 610,43l0,94C713,124 785,132 826,161C867,190 887,249 887,339l0,113C887,505 880,542 867,565C854,587 829,598 794,598C758,598 733,587 720,564C706,541 699,502 699,445C699,388 683,347 652,323C620,299 572,286 508,285C515,264 519,243 519,222C519,157 499,105 460,68C421,30 369,11 304,11C239,11 187,31 146,70C105,109 84,160 84,224l103,0C187,188 198,159 220,137C241,115 270,104 306,104C341,104 369,115 388,136C407,157 417,185 417,222C417,258 405,286 382,307C359,327 327,337 287,337l-34,0l0,97l32,0C319,434 348,443 371,462C394,481 405,506 405,538C405,570 396,596 378,615C359,634 334,643 301,643C268,643 242,634 223,615C204,596 195,570 194,537l-103,0C91,597 111,645 150,682C189,718 240,736 302,736C363,736 413,718 452,683C490,648 509,601 509,544C509,509 500,477 482,449C463,421 438,402 407,391l0,-5C415,383 424,380 433,375M677,927l91,0C768,870 751,825 717,790C683,755 632,738 564,738C495,738 444,755 410,790C375,825 358,870 358,927l91,0C449,897 459,872 479,852C498,831 527,821 564,821C601,821 629,831 648,852C667,872 677,897 677,927M620,954C620,939 615,926 604,915C593,904 579,898 564,898C548,898 534,904 523,915C512,926 506,939 506,954C506,969 512,983 523,994C534,1005 548,1011 564,1011C579,1011 593,1005 604,994C615,983 620,969 620,954z"
   id="glyph730" />
<glyph
   unicode="क़"
   horiz-adv-x="1004"
   d="M1036,645l-467,0l0,-161C602,533 652,558 720,558C788,558 841,536 880,493C919,449 938,391 938,318C938,245 911,189 858,148C804,107 737,93 657,105l-1,90C709,189 752,197 783,220C814,243 829,277 829,322C829,367 818,401 795,426C772,451 739,463 697,463C654,463 622,450 601,423C580,396 569,358 569,310l0,-310l-106,0l0,169C428,119 376,94 307,94C238,94 183,116 143,160C102,203 82,259 82,326C82,393 102,448 142,492C182,536 237,558 306,558C375,558 428,533 463,482l0,163l-494,0l0,95l1067,0M191,326C191,283 203,249 227,225C251,201 285,189 328,189C371,189 404,201 428,226C451,250 463,283 463,326C463,368 451,401 427,426C403,450 370,462 327,462C284,462 250,450 227,426C203,402 191,369 191,326M260,15C273,28 290,35 309,35C328,35 345,28 358,15C371,1 378,-15 378,-34C378,-53 371,-69 358,-82C345,-96 328,-103 309,-103C290,-103 273,-96 260,-82C247,-69 240,-53 240,-34C240,-15 247,1 260,15z"
   id="glyph732" />
<glyph
   unicode="ख़"
   horiz-adv-x="928"
   d="M-31,740l991,0l0,-95l-121,0l0,-645l-105,0l0,192C704,152 657,132 594,132C583,132 576,132 571,133C554,90 525,57 483,34C441,10 392,-2 335,-2C256,-2 194,20 148,64C102,108 79,170 79,249l0,158l31,0C159,407 195,413 218,424C239,435 251,463 256,506C259,526 260,553 260,586l0,59l-291,0M188,242C188,143 237,93 334,93C408,93 455,119 474,172C424,210 399,265 399,338C399,397 417,446 454,485C490,523 538,542 599,542C659,542 704,523 734,484l0,161l-366,0l0,-59C368,489 356,423 332,388C308,353 260,333 188,328M500,338C500,302 511,274 533,253C554,232 583,222 618,222C653,222 681,232 702,253C723,274 733,302 733,338C733,373 723,401 703,422C682,443 654,453 619,453C583,453 554,443 533,422C511,401 500,373 500,338M288,-93C301,-80 318,-73 337,-73C356,-73 373,-80 386,-93C399,-107 406,-123 406,-142C406,-161 399,-177 386,-190C373,-204 356,-211 337,-211C318,-211 301,-204 288,-190C275,-177 268,-161 268,-142C268,-123 275,-107 288,-93z"
   id="glyph734" />
<glyph
   unicode="ग़"
   horiz-adv-x="743"
   d="M-31,740l806,0l0,-95l-121,0l0,-645l-108,0l0,645l-182,0l0,-229C364,346 351,293 326,258C301,223 258,205 198,205C81,205 24,273 28,410l108,0C136,355 146,321 165,309C174,304 185,301 199,301C213,301 224,304 233,310C242,315 248,324 252,336C257,355 260,381 260,414l0,231l-291,0M158,62C171,75 188,82 207,82C226,82 243,75 256,62C269,49 276,32 276,13C276,-6 269,-23 256,-36C243,-49 226,-56 207,-56C188,-56 171,-49 158,-36C145,-23 138,-6 138,13C138,32 145,49 158,62z"
   id="glyph736" />
<glyph
   unicode="ज़"
   horiz-adv-x="836"
   d="M-31,740l898,0l0,-95l-120,0l0,-645l-109,0l0,419l-159,0l0,-63C479,275 464,212 433,168C402,124 349,102 274,102C192,102 135,127 104,178C76,223 62,283 62,356l0,153l109,0l0,-129C171,302 179,252 196,230C212,208 238,197 273,197C307,197 333,208 350,230C362,245 369,275 371,319C372,334 372,354 372,380l0,129l266,0l0,136l-669,0M216,-11C229,2 246,9 265,9C284,9 301,2 314,-11C327,-25 334,-41 334,-60C334,-79 327,-95 314,-108C301,-122 284,-129 265,-129C246,-129 229,-122 216,-108C203,-95 196,-79 196,-60C196,-41 203,-25 216,-11z"
   id="glyph738" />
<glyph
   unicode="ड़"
   horiz-adv-x="578"
   d="M472,461l-160,0C274,461 245,456 224,447C203,438 193,420 193,393C193,366 203,348 222,339C241,330 267,325 299,325C330,325 356,324 376,322C395,319 415,315 436,308C456,301 473,291 486,279C517,252 533,212 533,160C533,108 514,66 475,34C436,2 381,-14 312,-14C242,-14 185,4 140,40C95,76 71,127 70,192l107,0C182,114 228,75 314,75C388,75 425,104 425,161C425,192 415,212 394,222C373,232 344,237 309,237C274,237 244,239 221,244C197,248 174,255 152,266C106,289 83,334 83,399C83,476 126,525 212,544C235,549 261,552 289,552l74,0l0,93l-394,0l0,95l640,0l0,-95l-137,0M272,-89C285,-76 301,-69 320,-69C339,-69 355,-76 369,-89C382,-103 389,-119 389,-138C389,-157 382,-173 369,-186C355,-200 339,-207 320,-207C301,-207 285,-200 272,-186C258,-173 251,-157 251,-138C251,-119 258,-103 272,-89z"
   id="glyph740" />
<glyph
   unicode="ढ़"
   horiz-adv-x="638"
   d="M481,470l-83,0C329,470 274,454 233,421C192,388 172,342 172,282C172,221 190,175 227,144C263,113 312,97 374,97C416,97 449,106 472,125C495,143 506,166 506,194C506,252 480,281 429,281C380,281 355,252 355,194l-96,0C258,247 272,290 301,322C330,353 371,369 426,369C480,369 524,354 558,324C591,293 608,253 608,202C608,139 586,90 542,55C497,20 440,2 371,2C282,2 208,27 151,76C94,125 65,193 65,282C65,370 93,438 150,486C207,534 281,560 372,563l0,82l-403,0l0,95l700,0l0,-95l-188,0M330,-80C343,-67 360,-60 379,-60C398,-60 415,-67 428,-80C441,-93 448,-110 448,-129C448,-148 441,-165 428,-178C415,-191 398,-198 379,-198C360,-198 343,-191 330,-178C317,-165 310,-148 310,-129C310,-110 317,-93 330,-80z"
   id="glyph742" />
<glyph
   unicode="फ़"
   horiz-adv-x="985"
   d="M1016,645l-457,0l0,-182C594,513 645,538 713,538C781,538 834,517 873,476C912,434 931,378 931,309C931,240 907,185 859,145C811,105 748,88 669,95l-1,92C716,183 754,192 783,215C812,237 826,269 826,311C826,353 815,385 792,408C769,431 737,442 695,442C653,442 620,428 596,400C571,371 559,335 559,291l0,-291l-109,0l0,292C418,244 368,220 300,220C231,220 179,243 144,290C108,337 90,397 90,472l0,173l-121,0l0,95l1047,0M199,645l0,-174C199,420 209,381 228,354C247,327 278,314 321,314C364,314 397,329 418,359C439,388 450,426 450,473l0,172M214,83C227,96 243,103 262,103C281,103 297,96 311,83C324,69 331,53 331,34C331,15 324,-1 311,-14C297,-28 281,-35 262,-35C243,-35 227,-28 214,-14C200,-1 193,15 193,34C193,53 200,69 214,83z"
   id="glyph744" />
<glyph
   unicode="ॠ"
   horiz-adv-x="999"
   d="M1029,645l-441,0l0,-175l169,0C780,470 796,474 803,483C810,492 813,508 813,531l0,35l99,0l0,-364l-25,0C836,202 805,192 792,172C786,163 783,152 783,139C783,126 786,115 793,106C799,97 808,90 820,86C839,81 863,78 892,78l30,0l0,-85l-32,0C819,-7 784,-32 784,-81C784,-104 793,-122 811,-133C828,-144 850,-150 875,-150C900,-150 925,-147 952,-141l0,-84C927,-231 901,-234 873,-234C816,-234 770,-221 735,-196C700,-171 682,-135 682,-89C682,-62 689,-37 704,-16C719,5 738,21 762,32C739,40 719,54 704,73C689,92 681,115 681,141C681,179 694,208 719,229C744,250 775,263 813,269l0,114C799,380 780,379 757,379l-169,0l0,-379l-108,0l0,242l-233,-242l-141,0l0,5C115,14 173,69 278,170C383,271 448,332 472,354C462,387 445,412 420,431C395,450 361,459 319,459C276,459 241,444 214,413C186,382 172,341 172,290l-108,0C64,369 86,432 130,481C174,529 234,553 309,553C384,553 441,527 480,474l0,171l-511,0l0,95l1060,0z"
   id="glyph746" />
<glyph
   unicode="ॡ"
   horiz-adv-x="909"
   d="M681,645l0,-136C733,500 774,476 804,436C833,396 848,343 848,276C848,253 846,229 841,206l-16,0C794,206 769,202 750,194C731,185 721,169 721,144C721,119 731,102 751,95C771,87 798,83 831,83l30,0l0,-85l-33,0C758,-2 723,-27 723,-77C723,-123 756,-146 821,-146C846,-146 869,-143 890,-136l0,-84C869,-226 842,-229 811,-229C754,-229 708,-216 673,-191C638,-166 620,-131 620,-85C620,-57 628,-32 643,-11C658,10 677,26 701,36C677,45 657,59 642,78C627,97 619,123 619,154C619,185 631,210 654,230C677,250 705,262 740,267C741,366 704,416 629,416C544,416 506,351 513,220l-102,0C418,351 380,416 297,416C222,416 185,368 185,271C185,217 200,176 230,149C260,122 303,110 359,114l0,-97C272,10 204,29 153,76C102,122 76,185 76,265C76,345 94,406 131,449C168,492 220,513 287,513C330,513 367,503 398,483C428,463 450,435 463,398C480,453 518,487 576,500l0,145l-607,0l0,95l970,0l0,-95z"
   id="glyph748" />
<glyph
   unicode="ॢ"
   horiz-adv-x="0"
   d="M522,26C567,26 601,11 625,-19C649,-49 661,-88 661,-135C661,-152 659,-169 656,-184l-8,0C602,-184 579,-202 579,-238C579,-272 602,-289 649,-289C662,-289 674,-288 687,-285l0,-72C672,-360 656,-362 641,-362C597,-362 562,-352 535,-332C508,-312 494,-283 494,-244C494,-217 502,-194 517,-175C532,-156 552,-144 577,-139C582,-82 561,-54 515,-54C464,-54 442,-93 448,-172l-88,0C363,-135 360,-106 351,-85C342,-64 324,-54 297,-54C253,-54 231,-83 231,-140C231,-206 267,-237 339,-233l0,-78C280,-316 233,-302 197,-270C161,-239 143,-196 143,-143C143,-90 156,-48 181,-19C206,10 242,25 289,25C318,25 342,18 363,4C383,-10 397,-29 405,-52C412,-29 425,-11 445,4C465,19 491,26 522,26z"
   id="glyph750" />
<glyph
   unicode="ॣ"
   horiz-adv-x="0"
   d="M648,-183C624,-183 607,-185 597,-188C586,-192 581,-201 581,-214C581,-227 586,-236 597,-239C608,-243 625,-245 648,-246l15,0l0,-59l-13,0C626,-305 609,-307 598,-311C587,-316 581,-325 581,-339C581,-360 599,-371 636,-371C651,-371 668,-368 685,-363l0,-62C666,-430 646,-433 625,-433C544,-433 504,-404 504,-346C504,-311 521,-287 555,-275C521,-264 504,-242 504,-209C504,-187 511,-170 526,-158C541,-147 558,-140 579,-138C581,-115 577,-94 568,-77C559,-60 541,-52 515,-52C464,-52 442,-92 448,-172l-88,0C363,-135 360,-106 351,-85C342,-64 324,-54 297,-54C253,-54 231,-83 231,-140C231,-206 267,-237 339,-233l0,-78C280,-316 233,-302 197,-270C161,-239 143,-196 143,-143C143,-90 156,-48 181,-19C206,10 242,25 289,25C318,25 342,18 363,4C383,-10 397,-29 405,-52C412,-29 425,-11 445,4C465,19 491,26 522,26C567,26 601,11 625,-19C649,-49 661,-88 661,-135C661,-150 659,-166 656,-183z"
   id="glyph752" />
<glyph
   unicode="।"
   horiz-adv-x="279"
   d="M146,741l108,0l0,-741l-108,0z"
   id="glyph754" />
<glyph
   unicode="॥"
   horiz-adv-x="509"
   d="M376,741l109,0l0,-741l-109,0M146,741l108,0l0,-741l-108,0z"
   id="glyph756" />
<glyph
   unicode="०"
   horiz-adv-x="641"
   d="M194,702C229,720 271,729 320,729C369,729 411,720 446,702C481,683 508,657 527,623C546,589 559,551 568,510C576,468 580,420 580,366C580,312 576,264 568,223C559,181 546,143 527,109C508,74 481,48 446,30C411,11 369,2 320,2C271,2 229,11 194,30C159,48 133,74 114,109C95,143 81,181 73,223C64,264 60,312 60,366C60,420 64,468 73,510C81,551 95,589 114,623C133,657 159,683 194,702M320,625C288,625 262,618 241,605C220,591 205,571 196,544C180,498 172,439 172,366C172,293 180,233 196,187C215,133 256,106 320,106C384,106 425,133 444,187C460,233 468,293 468,366C468,439 460,498 444,544C425,598 384,625 320,625z"
   id="glyph758" />
<glyph
   unicode="१"
   horiz-adv-x="350"
   d="M138,0l0,606l-93,0l0,104l208,0l0,-710z"
   id="glyph760" />
<glyph
   unicode="२"
   horiz-adv-x="577"
   d="M51,10l0,83C68,108 92,129 124,156C156,183 181,205 198,220C215,235 236,254 261,278C286,301 306,322 320,339C334,356 348,375 363,396C390,435 404,473 404,512C404,595 365,636 286,636C247,636 216,624 195,599C173,574 161,540 160,498l-110,0C52,574 75,632 119,673C162,713 219,733 289,733C359,733 415,713 456,674C497,635 517,583 517,518C517,469 504,423 478,379C464,356 451,336 438,319C425,301 408,281 385,258C362,235 344,218 331,205C318,192 298,175 273,152C247,129 229,114 220,105l317,0l0,-95z"
   id="glyph762" />
<glyph
   unicode="३"
   horiz-adv-x="594"
   d="M521,556C521,515 510,479 488,450C466,421 440,401 409,391l0,-4C448,375 479,353 501,322C523,290 534,247 534,192C534,137 514,91 473,53C432,15 375,-4 302,-4C229,-4 169,15 123,52C76,89 51,142 48,211l110,0C161,176 174,147 199,125C224,102 257,91 298,91C339,91 371,102 393,125C415,147 426,176 426,211C426,258 411,291 382,311C352,330 306,340 245,340l-26,0l0,94l27,0C357,435 412,472 412,543C412,575 402,601 381,620C360,639 331,648 294,648C256,648 227,639 206,620C185,601 173,577 169,549l-111,0C62,611 86,659 130,694C173,729 230,746 299,746C368,746 422,728 462,693C501,657 521,611 521,556z"
   id="glyph764" />
<glyph
   unicode="४"
   horiz-adv-x="647"
   d="M413,251l0,353l-236,-353M408,0l0,152l-362,0l0,86l336,482l138,0l0,-469l93,0l0,-99l-93,0l0,-152z"
   id="glyph766" />
<glyph
   unicode="५"
   horiz-adv-x="639"
   d="M90,731l440,0l0,-100l-335,0l0,-199C209,451 230,466 258,479C285,492 318,498 355,498C392,498 426,491 458,476C489,461 513,442 530,417C563,369 580,315 580,255C580,179 558,118 515,71C472,24 412,0 335,0C258,0 197,18 153,54C109,90 83,138 74,197l111,0C192,166 209,141 234,123C259,104 293,95 336,95C379,95 412,109 436,138C459,167 471,205 471,253C471,300 459,337 435,363C411,388 376,401 329,401C296,401 269,393 247,377C224,360 208,338 198,310l-108,0z"
   id="glyph768" />
<glyph
   unicode="६"
   horiz-adv-x="642"
   d="M471,240C471,284 459,320 436,347C412,374 378,387 335,387C292,387 256,375 228,351C199,326 185,291 185,245C185,199 198,163 225,136C251,109 286,95 331,95C376,95 410,108 435,134C459,160 471,195 471,240M331,652C278,652 239,632 213,592C187,551 173,484 172,391C189,420 215,443 248,459C281,475 317,483 356,483C423,483 477,462 518,419C559,376 580,319 580,246C580,173 559,113 517,68C475,23 416,0 341,0C238,0 167,35 128,104C108,139 94,178 86,223C78,267 74,320 74,381C74,625 160,747 332,747C399,747 451,729 490,693C528,657 550,613 557,560l-105,0C437,621 397,652 331,652z"
   id="glyph770" />
<glyph
   unicode="७"
   horiz-adv-x="560"
   d="M40,726l482,0l0,-85l-278,-641l-125,0l291,631l-370,0z"
   id="glyph772" />
<glyph
   unicode="८"
   horiz-adv-x="638"
   d="M466,212C466,253 453,284 426,307C399,330 364,341 320,341C275,341 239,330 212,308C184,286 170,254 170,213C170,171 183,138 210,114C237,89 273,77 319,77C364,77 400,89 427,114C453,139 466,171 466,212M450,544C450,579 438,607 415,627C392,647 360,657 320,657C279,657 247,647 224,627C201,607 189,579 189,544C189,508 201,480 226,459C250,438 281,427 319,427C357,427 388,438 413,459C438,480 450,509 450,544M79,555C79,611 100,658 142,696C183,733 242,752 319,752C396,752 455,733 497,696C538,658 559,611 559,555C559,518 550,485 531,457C512,428 486,406 455,391C493,376 523,353 545,321C567,289 578,251 578,206C578,138 554,84 506,43C458,2 396,-18 320,-18C243,-18 181,2 133,43C85,84 61,138 61,206C61,251 72,290 94,322C116,354 146,377 183,391C114,426 79,480 79,555z"
   id="glyph774" />
<glyph
   unicode="९"
   horiz-adv-x="635"
   d="M186,510C186,468 198,434 222,408C245,381 279,368 323,368C367,368 401,381 424,406C447,431 458,465 458,509C458,552 446,587 422,613C397,638 364,651 322,651C280,651 247,638 223,612C198,585 186,551 186,510M334,96C381,96 416,115 438,152C460,189 471,253 471,343C455,320 433,303 404,291C375,278 343,272 309,272C242,272 186,292 143,333C99,374 77,431 77,505C77,578 99,637 142,681C185,724 244,746 319,746C410,746 474,716 513,656C551,595 570,501 570,374C570,247 552,153 517,92C482,31 418,1 327,1C256,1 201,20 162,57C123,94 102,141 97,198l105,0C215,130 259,96 334,96z"
   id="glyph776" />
<glyph
   unicode="॰"
   horiz-adv-x="486"
   d="M342,253C342,278 334,298 319,314C304,330 283,338 257,338C230,338 209,330 192,315C175,299 166,279 166,254C166,229 175,208 192,192C209,176 230,168 256,168C282,168 303,176 319,192C334,207 342,228 342,253M94,255C94,300 109,337 139,366C169,395 208,409 257,409C305,409 343,394 372,365C401,336 415,298 415,252C415,206 400,169 371,140C341,111 303,97 256,97C209,97 170,112 140,143C109,173 94,210 94,255z"
   id="glyph778" />
<glyph
   unicode="ॲ"
   horiz-adv-x="841"
   d="M643,398l0,342l229,0l0,-95l-120,0l0,-645l-109,0l0,306l-132,0C515,292 517,277 517,261C517,197 497,147 458,111C419,74 367,56 303,56C238,56 186,74 146,111C106,148 86,198 86,261l103,0C189,228 200,201 221,180C242,159 269,149 304,149C338,149 365,159 385,180C405,200 415,227 415,261C415,331 372,366 287,366l-34,0l0,97l32,0C320,463 348,471 370,488C392,504 403,527 403,557C403,587 394,611 376,629C357,647 332,656 301,656C270,656 245,647 226,629C207,611 197,587 196,558l-102,0C94,615 114,662 153,697C192,732 242,750 303,750C363,750 412,733 450,700C487,666 506,621 506,565C506,530 497,499 480,474C463,449 438,431 407,420l0,-5C420,411 433,405 444,398M814,993l94,0C908,936 891,891 858,857C824,822 772,805 703,805C634,805 582,822 549,857C515,891 498,936 498,993l94,0C592,964 601,939 620,919C638,899 666,889 703,889C740,889 767,899 786,919C805,939 814,964 814,993z"
   id="glyph780" />
<glyph
   unicode="​"
   horiz-adv-x="0"
   id="glyph782" />
<glyph
   unicode="‌"
   horiz-adv-x="0"
   d="M24,-230l-47,0l0,1041l47,0z"
   id="glyph784" />
<glyph
   unicode="‍"
   horiz-adv-x="0"
   d="M24,-230l-47,0l0,865l-69,-73l-33,33l93,93l-95,95l33,33l95,-95l96,95l32,-32l-96,-96l96,-95l-33,-33l-72,75z"
   id="glyph786" />
<glyph
   unicode="–"
   horiz-adv-x="708"
   d="M87,314l0,96l535,0l0,-96z"
   id="glyph788" />
<glyph
   unicode="—"
   horiz-adv-x="924"
   d="M87,314l0,96l750,0l0,-96z"
   id="glyph790" />
<glyph
   unicode="‘"
   horiz-adv-x="175"
   d="M145,576l-103,0C33,611 29,644 29,675C29,758 66,800 141,800l0,-50C109,750 93,731 93,693l0,-21l52,0z"
   id="glyph792" />
<glyph
   unicode="’"
   horiz-adv-x="175"
   d="M30,799l103,0C142,764 146,731 146,700C146,617 109,575 34,575l0,50C66,625 82,644 82,682l0,21l-52,0z"
   id="glyph794" />
<glyph
   unicode="‚"
   horiz-adv-x="202"
   d="M36,78l108,0C170,-21 165,-88 130,-124C111,-145 82,-155 45,-155l0,50C62,-105 74,-101 82,-93C89,-85 93,-72 93,-53l0,21l-57,0z"
   id="glyph796" />
<glyph
   unicode="“"
   horiz-adv-x="326"
   d="M297,576l-103,0C185,611 181,644 181,675C181,758 218,800 293,800l0,-50C261,750 245,731 245,693l0,-21l52,0M145,576l-103,0C33,611 29,644 29,675C29,758 66,800 141,800l0,-50C109,750 93,731 93,693l0,-21l52,0z"
   id="glyph798" />
<glyph
   unicode="”"
   horiz-adv-x="326"
   d="M30,799l103,0C142,764 146,731 146,700C146,617 109,575 34,575l0,50C66,625 82,644 82,682l0,21l-52,0M181,799l103,0C293,764 297,731 297,700C297,617 260,575 185,575l0,50C217,625 233,644 233,682l0,21l-52,0z"
   id="glyph800" />
<glyph
   unicode="„"
   horiz-adv-x="202"
   d="M36,78l108,0C170,-21 165,-88 130,-124C111,-145 82,-155 45,-155l0,50C62,-105 74,-101 82,-93C89,-85 93,-72 93,-53l0,21l-57,0z"
   id="glyph802" />
<glyph
   unicode="†"
   horiz-adv-x="584"
   d="M337,541l198,10l0,-89l-198,10l12,-734l-114,0l12,734l-198,-10l0,89l198,-10l-12,242l114,0z"
   id="glyph804" />
<glyph
   unicode="‡"
   horiz-adv-x="585"
   d="M535,551l0,-89l-198,10l0,-422l198,10l0,-89l-198,10l12,-243l-114,0l12,243l-197,-10l0,89l197,-10l0,422l-197,-10l0,89l197,-10l-12,242l114,0l-12,-242z"
   id="glyph806" />
<glyph
   unicode="•"
   horiz-adv-x="462"
   d="M362,333C362,296 349,266 324,241C299,216 268,203 231,203C194,203 163,216 138,241C113,266 100,296 100,333C100,370 113,401 138,426C163,451 194,464 231,464C268,464 299,451 324,426C349,401 362,370 362,333z"
   id="glyph808" />
<glyph
   unicode="…"
   horiz-adv-x="638"
   d="M166,20C153,7 136,0 117,0C98,0 82,7 69,20C56,33 49,50 49,69C49,88 56,104 69,117C82,130 98,137 117,137C136,137 153,130 166,117C179,104 186,87 186,68C186,49 179,33 166,20M589,68C589,49 582,33 569,20C556,7 540,0 521,0C502,0 485,7 472,20C459,33 452,50 452,69C452,88 459,104 472,117C485,130 501,137 520,137C539,137 556,130 569,117C582,104 589,87 589,68M387,68C387,49 380,33 367,20C354,7 338,0 319,0C300,0 283,7 270,20C257,33 250,50 250,69C250,88 257,104 270,117C283,130 299,137 318,137C337,137 354,130 367,117C380,104 387,87 387,68z"
   id="glyph810" />
<glyph
   unicode="‰"
   horiz-adv-x="1062"
   d="M932,144C932,200 911,228 869,228C827,228 806,200 806,144C806,88 827,60 869,60C911,60 932,88 932,144M760,32C731,59 717,97 717,144C717,191 731,229 760,256C789,283 825,297 870,297C914,297 950,283 979,256C1007,229 1021,191 1021,144C1021,97 1007,59 979,32C950,4 914,-10 870,-10C825,-10 789,4 760,32M592,144C592,200 571,228 529,228C487,228 466,200 466,144C466,88 487,60 529,60C571,60 592,88 592,144M421,32C392,59 378,97 378,144C378,191 392,229 421,256C449,283 485,297 530,297C574,297 610,283 639,256C667,229 681,191 681,144C681,97 667,59 639,32C610,4 574,-10 530,-10C485,-10 449,4 421,32M105,0l399,696l112,0l-399,-696M256,553C256,609 235,637 193,637C151,637 130,609 130,553C130,496 151,468 193,468C235,468 256,496 256,553M84,441C55,468 41,506 41,553C41,600 55,638 84,665C112,692 148,706 193,706C238,706 274,692 303,665C331,638 345,600 345,553C345,506 331,468 303,441C274,413 238,399 193,399C148,399 112,413 84,441z"
   id="glyph812" />
<glyph
   unicode="‹"
   horiz-adv-x="297"
   d="M151,295l96,-175l-110,0l-92,175l92,175l110,0z"
   id="glyph814" />
<glyph
   unicode="›"
   horiz-adv-x="297"
   d="M159,120l-109,0l95,175l-95,175l109,0l93,-175z"
   id="glyph816" />
<glyph
   unicode="⁄"
   horiz-adv-x="587"
   d="M51,0l399,696l113,0l-399,-696z"
   id="glyph818" />
<glyph
   unicode="₨"
   horiz-adv-x="1147"
   d="M1058,153C1058,105 1038,66 998,36C957,6 905,-9 842,-9C779,-9 727,6 688,37C649,68 627,111 623,168l118,0C743,141 753,119 771,104C789,89 814,81 845,81C876,81 900,88 919,102C937,115 946,133 946,156C946,179 935,196 913,209C891,222 864,231 833,238C801,244 769,251 738,260C706,268 679,283 657,305C635,327 624,356 624,393C624,440 644,479 683,512C722,544 774,560 838,560C902,560 953,544 991,513C1028,481 1048,438 1051,383l-117,0C932,410 923,432 906,447C889,462 865,470 834,470C803,470 779,463 762,450C745,436 736,418 736,396C736,373 747,356 769,343C791,330 818,321 850,315C881,309 913,302 945,293C976,284 1003,269 1025,246C1047,223 1058,192 1058,153M75,695l240,0C394,695 454,676 497,637C540,598 561,548 561,488C561,441 547,399 519,362C490,325 447,300 388,289l184,-289l-139,0l-174,282l-70,0l0,-282l-114,0M189,606l0,-235l126,0C358,371 391,381 412,402C433,423 444,452 444,489C444,526 433,554 412,575C391,596 358,606 315,606z"
   id="glyph820" />
<glyph
   unicode="€"
   horiz-adv-x="802"
   d="M453,227l-213,0C259,186 288,154 325,131C362,108 404,97 453,97C539,97 601,132 638,202l137,0C749,135 707,84 650,48C593,12 526,-6 450,-6C374,-6 306,15 245,58C184,100 142,156 118,227l-92,0l0,78l74,0C99,324 98,338 98,349C98,360 99,374 100,393l-74,0l0,78l92,0C142,542 184,598 245,641C306,683 374,704 450,704C525,704 592,686 650,650C707,613 749,562 775,495l-137,0C601,565 539,600 453,600C405,600 362,589 325,566C288,543 259,512 240,471l213,0l0,-78l-235,0C216,379 215,364 215,349C215,334 216,319 218,305l235,0z"
   id="glyph822" />
<glyph
   unicode="₹"
   horiz-adv-x="622"
   d="M474,613l0,-89l116,0l0,-82l-122,0C457,376 431,329 390,302C349,275 284,261 195,261l0,-63C195,119 229,79 298,79C366,79 400,117 400,194l105,0C504,127 486,76 451,42C415,7 363,-10 296,-10C229,-10 177,9 142,46C106,83 88,136 88,203l0,137C194,340 264,346 299,357C333,368 354,397 362,442l-316,0l0,82l321,0l0,89l-321,0l0,83l544,0l0,-83z"
   id="glyph824" />
<glyph
   unicode="₺"
   horiz-adv-x="850"
   d="M611,428l117,0C728,277 699,165 641,93C582,21 488,-15 359,-15C303,-15 238,-7 164,10l0,231l-149,-34l0,81l149,34l0,85l-153,-35l0,78l153,35l0,216l117,0l0,-189l164,38l0,-80l-164,-37l0,-85l159,36l0,-80l-159,-36l0,-169C303,94 329,92 359,92C450,92 514,120 553,177C592,234 611,317 611,428z"
   id="glyph826" />
<glyph
   unicode="₽"
   horiz-adv-x="635"
   d="M355,282l-126,0l0,-82l199,0l0,-91l-199,0l0,-109l-114,0l0,109l-89,0l0,91l89,0l0,82l-89,0l0,89l89,0l0,324l240,0C434,695 494,676 537,637C580,598 601,549 601,491C601,432 581,383 541,343C500,302 438,282 355,282M229,606l0,-235l126,0C398,371 431,381 452,402C473,423 484,452 484,489C484,526 473,554 452,575C431,596 398,606 355,606z"
   id="glyph828" />
<glyph
   unicode="ℓ"
   horiz-adv-x="264"
   d="M75,0l0,740l114,0l0,-740z"
   id="glyph830" />
<glyph
   unicode="™"
   horiz-adv-x="811"
   d="M750,704l0,-352l-82,0l-2,238l-99,-238l-61,0l-98,243l0,-243l-81,0l0,352l116,0l96,-247l101,247M24,636l0,68l245,0l0,-68l-79,0l1,-284l-90,0l2,284z"
   id="glyph832" />
<glyph
   unicode="Ω"
   horiz-adv-x="785"
   d="M48,89l120,0C125,116 93,152 71,198C49,243 38,294 38,349C38,452 72,537 140,604C208,671 292,704 392,704C492,704 576,671 645,604C713,537 747,452 747,349C747,294 736,243 714,198C692,152 660,116 617,89l119,0l0,-89l-273,0l0,92C513,109 554,140 585,184C616,228 631,281 631,342C631,421 609,483 564,530C519,577 462,600 392,600C321,600 264,577 220,530C176,483 154,421 154,342C154,281 170,228 201,184C232,140 272,109 322,92l0,-92l-274,0z"
   id="glyph834" />
<glyph
   unicode="℮"
   horiz-adv-x="757"
   d="M194,387l362,0l0,174C513,609 453,633 375,633C297,633 237,606 194,551M685,136C596,41 499,-7 394,-7C289,-7 204,23 140,83C75,143 43,227 43,334C43,441 73,529 133,599C192,669 274,704 378,704C447,704 508,688 560,657C612,626 651,586 676,537C701,488 714,435 714,378l0,-62l-520,0l0,-170C245,92 309,65 387,65C435,65 479,75 519,96C558,116 598,146 639,187z"
   id="glyph836" />
<glyph
   unicode="∂"
   horiz-adv-x="585"
   d="M312,560C359,560 398,542 428,507C424,558 410,598 387,628C363,658 330,673 287,673C264,673 238,669 208,661l0,64C239,735 271,740 304,740C381,740 440,710 483,650C526,590 547,510 547,410C547,284 518,183 459,106C400,29 327,-9 242,-9C182,-9 133,11 95,52C57,93 38,155 38,239C38,323 65,398 119,463C172,528 237,560 312,560M420,321C420,367 411,402 392,427C373,452 348,464 316,464C270,464 232,442 201,397C170,352 154,297 154,231C154,183 163,147 182,123C200,99 224,87 255,87C301,87 340,110 372,157C404,203 420,258 420,321z"
   id="glyph838" />
<glyph
   unicode="∆"
   horiz-adv-x="696"
   d="M559,88l-211,478l-211,-478M676,0l-656,0l0,88l281,608l94,0l281,-608z"
   id="glyph840" />
<glyph
   unicode="∏"
   horiz-adv-x="741"
   d="M31,607l0,89l679,0l0,-89l-77,0l0,-607l-113,0l0,607l-299,0l0,-607l-114,0l0,607z"
   id="glyph842" />
<glyph
   unicode="∑"
   horiz-adv-x="480"
   d="M440,696l0,-88l-303,0l262,-241l0,-88l-263,-247l304,0l0,-88l-400,0l0,133l254,244l-254,243l0,132z"
   id="glyph844" />
<glyph
   unicode="−"
   horiz-adv-x="585"
   d="M87,314l0,96l411,0l0,-96z"
   id="glyph846" />
<glyph
   unicode="∕"
   horiz-adv-x="514"
   d="M61,-175l271,1119l113,0l-272,-1119z"
   id="glyph848" />
<glyph
   unicode="∙"
   horiz-adv-x="244"
   d="M170,289C157,276 140,269 121,269C102,269 86,276 73,289C60,302 53,318 53,337C53,356 60,373 73,386C86,399 102,406 121,406C140,406 157,399 170,386C183,373 190,356 190,337C190,318 183,302 170,289z"
   id="glyph850" />
<glyph
   unicode="√"
   horiz-adv-x="829"
   d="M736,879l82,0l-504,-922l-58,0l-132,233l-69,-41l-34,57l167,99l119,-211z"
   id="glyph852" />
<glyph
   unicode="∞"
   horiz-adv-x="702"
   d="M514,192C457,192 402,223 348,284C308,222 253,191 184,192C139,193 101,207 72,235C42,262 27,300 27,347C27,394 43,432 74,461C105,489 143,503 188,503C245,503 300,471 352,408C392,472 447,504 518,503C563,502 600,488 630,461C660,433 675,395 675,348C675,301 660,263 629,235C598,206 559,192 514,192M194,274C236,274 272,296 301,341C280,368 261,388 245,401C229,414 211,421 192,421C172,421 155,415 142,402C129,389 122,370 122,347C122,324 129,306 142,293C155,280 173,274 194,274M398,350C418,325 436,306 453,293C470,280 488,274 509,274C530,274 547,281 560,294C573,307 580,325 580,348C580,371 573,389 560,402C547,415 530,421 509,421C488,421 467,415 448,402C428,389 411,372 398,350z"
   id="glyph854" />
<glyph
   unicode="∫"
   horiz-adv-x="270"
   d="M296,925l22,0l-10,-95l-16,0C276,830 264,826 256,817C248,808 243,792 240,771l-90,-835C144,-119 127,-158 99,-181C70,-205 30,-217 -21,-217l-21,0l9,94l17,0C14,-123 31,-103 35,-64l91,835C132,826 149,866 177,890C205,913 245,925 296,925z"
   id="glyph856" />
<glyph
   unicode="≈"
   horiz-adv-x="553"
   d="M195,567C223,567 254,556 289,535C323,513 349,502 366,502C383,502 398,508 411,519C424,530 431,545 434,565l83,0C498,455 445,400 357,400C329,400 298,411 265,433C231,454 205,465 188,465C170,465 155,460 142,449C129,438 121,422 118,402l-82,0C55,512 108,567 195,567M195,345C223,345 254,334 289,313C323,291 349,280 366,280C383,280 398,286 411,297C424,308 431,323 434,343l83,0C498,233 445,178 357,178C329,178 298,189 265,211C231,232 205,243 188,243C170,243 155,238 142,227C129,216 121,200 118,180l-82,0C55,290 108,345 195,345z"
   id="glyph858" />
<glyph
   unicode="≠"
   horiz-adv-x="752"
   d="M653,525l0,-101l-169,0l-110,-126l279,0l0,-101l-367,0l-81,-92l-84,0l81,92l-81,0l0,101l169,0l110,126l-279,0l0,101l368,0l80,92l84,0l-80,-92z"
   id="glyph860" />
<glyph
   unicode="≤"
   horiz-adv-x="549"
   d="M465,588l-229,-189l229,-191l-150,0l-230,190l230,190M91,67l0,86l369,0l0,-86z"
   id="glyph862" />
<glyph
   unicode="≥"
   horiz-adv-x="549"
   d="M89,67l0,86l369,0l0,-86M234,208l-149,0l228,191l-228,189l149,0l231,-190z"
   id="glyph864" />
<glyph
   unicode="◊"
   horiz-adv-x="557"
   d="M409,351l-130,130l-130,-130l130,-131M31,351l248,247l247,-247l-247,-248z"
   id="glyph866" />
<glyph
   unicode="◌"
   horiz-adv-x="660"
   d="M270,528C261,536 257,547 257,560C257,573 261,584 270,592C278,600 288,604 301,604C314,604 324,600 333,592C341,584 345,573 345,560C345,547 341,536 333,528C324,520 314,516 301,516C288,516 278,520 270,528M428,501C415,501 405,505 396,514C387,523 383,533 383,546C383,558 387,568 396,577C404,586 415,590 428,590C441,590 451,586 459,578C467,569 471,559 471,546C471,533 467,523 459,514C450,505 440,501 428,501M491,446C482,454 478,464 478,477C478,490 482,500 491,509C499,518 509,522 522,522C535,522 545,518 554,510C562,501 566,491 566,478C566,465 562,454 554,446C545,437 535,433 522,433C509,433 499,437 491,446M540,328C532,336 528,346 528,359C528,372 532,382 540,391C548,399 559,403 572,403C585,403 595,399 604,391C612,382 616,372 616,359C616,346 612,336 604,328C595,319 585,315 572,315C559,315 548,319 540,328M531,194C522,202 518,212 518,225C518,238 522,248 531,257C540,266 550,270 563,270C575,270 585,266 594,257C602,248 606,238 606,225C606,212 602,202 594,194C585,185 575,181 563,181C550,181 540,185 531,194M458,96C449,104 445,114 445,127C445,140 449,150 458,159C466,167 476,171 489,171C502,171 512,167 521,159C530,150 534,140 534,127C534,114 530,104 521,96C512,87 502,83 489,83C476,83 466,87 458,96M336,42C328,50 324,61 324,74C324,87 328,98 336,106C344,114 355,118 368,118C381,118 392,114 401,106C409,97 413,87 413,74C413,61 409,51 401,43C392,34 381,30 368,30C355,30 344,34 336,42M242,44C229,44 219,48 210,57C201,66 197,76 197,89C197,102 201,112 210,121C219,130 229,134 242,134C255,134 265,130 274,121C282,112 286,102 286,89C286,76 282,66 274,57C265,48 255,44 242,44M108,134C100,142 96,152 96,165C96,178 100,188 109,197C117,205 127,209 140,209C153,209 163,205 172,197C180,188 184,178 184,165C184,152 180,142 172,134C163,125 153,121 140,121C127,121 116,125 108,134M57,250C48,258 44,268 44,281C44,294 48,304 57,313C65,322 75,326 88,326C101,326 111,322 120,314C128,305 132,295 132,282C132,269 128,258 120,250C111,242 101,238 88,238C75,238 65,242 57,250M70,376C61,384 57,394 57,407C57,420 61,430 70,439C79,447 89,451 102,451C115,451 125,447 134,439C143,430 147,420 147,407C147,394 143,384 134,376C125,367 115,363 102,363C89,363 79,367 70,376M183,472C170,472 160,476 152,485C143,493 139,504 139,517C139,530 143,540 152,549C160,557 170,561 183,561C196,561 206,557 215,549C223,540 227,530 227,517C227,504 223,493 215,485C206,476 196,472 183,472z"
   id="glyph868" />
<glyph
   unicode=""
   horiz-adv-x="137"
   d="M11,-46l103,0C123,-81 127,-114 127,-145C127,-228 90,-270 15,-270l0,50C47,-220 63,-201 63,-163l0,21l-52,0z"
   id="glyph870" />
<glyph
   unicode="ﬁ"
   horiz-adv-x="596"
   d="M204,590l0,-39l317,0l0,-551l-114,0l0,458l-203,0l0,-458l-115,0l0,458l-65,0l0,93l65,0l0,39C89,653 106,700 140,729C173,758 226,772 298,772l0,-95C263,677 239,671 225,658C211,645 204,622 204,590M537,697C537,676 530,659 516,645C502,631 485,624 465,624C444,624 427,631 413,645C399,659 392,676 392,697C392,718 399,735 413,749C427,763 444,770 465,770C485,770 502,763 516,749C530,735 537,718 537,697z"
   id="glyph872" />
<glyph
   unicode="ﬂ"
   horiz-adv-x="596"
   d="M407,740l114,0l0,-740l-114,0M204,590l0,-39l102,0l0,-93l-102,0l0,-458l-115,0l0,458l-65,0l0,93l65,0l0,39C89,653 106,700 140,729C173,758 226,772 298,772l0,-95C263,677 239,671 225,658C211,645 204,622 204,590z"
   id="glyph874" />
</font>
</defs>
</svg>
